İkinci Şans 2016 1080p WEB-DL x264 SanSürSüz TORK

Genişletmek için Tıkla!
Saat: 07:14 , playdevil Tarafından Yüklendi.
Kaynaklar: 3 / İndirilen: 0 / Boyut: 1.65 GB / Tamamlandı: 4
Torrenti İndir  Torrenti Şikayet Et Torrent Tanımı NFO Tanıtım Videosu
IMDB Puanı: 5.7 5.7/10 Kategori: Drama | Romantik
Kategori: Yerli Filmler > 1080p
http://www.imdb.com/title/tt5719222/

İkinci Şans 2016 1080p WEB-DL x264 SanSürSüz TORK





AÇIKLAMA

Matematik öğretmeni olan çok gu¨zel bir kadın Yasemin ile et restoranı sahibi karizmatik gurme Cemal'in yolları kesişir. Yasemin geçmişte yaşadığı yanlış evililiğin yaralarını sarmaya çalışan, attığı adımlara dikkat eden bir annedir. Cemal ise sosyal, geçmişinden kurtulmak isteyen gamsız bir adamdır. Bu zıt karakterli ikilinin tanışması önce kavgalı olacaksa da zamanla hüzünlü bir aşka dönüşecektir. Geçmişlerinin derinlerine indiklerinde ikisinin de ikinci bir şansa ihtiyacı olduğu ortaya çıkar.

Başrollerinde Nurgül Yeşilçay ve Özcan Deniz'in yer aldığı filmin senaristliğini ve yönetmenliğini de Özcan Deniz üstleniyor. Çekimlerinin büyük bölümü İstanbul'da gerçekleştirilen filmin oyuncu kadrosunda ayrıca Mesut Can Tomay, Afra Saraçoğlu, Berrin Arısoy Akhasanoğlu, Fulya Şirin, Anıl Altınöz, Aybike Turan, Duygu Çelebi ve Füsun Erbulak da yer alıyor.



NFO kısmındadır




İkinci Şans 2016 720p WEB-DL x264 SanSürSüz TORK

Genişletmek için Tıkla!
Saat: 07:14 , playdevil Tarafından Yüklendi.
Kaynaklar: 3 / İndirilen: 0 / Boyut: 1.14 GB / Tamamlandı: 6
Torrenti İndir  Torrenti Şikayet Et Torrent Tanımı NFO Tanıtım Videosu
IMDB Puanı: 5.7 5.7/10 Kategori: Drama | Romantik
Kategori: Yerli Filmler > 720p
http://www.imdb.com/title/tt5719222/

İkinci Şans 2016 720p WEB-DL x264 SanSürSüz TORK





AÇIKLAMA

Matematik öğretmeni olan çok gu¨zel bir kadın Yasemin ile et restoranı sahibi karizmatik gurme Cemal'in yolları kesişir. Yasemin geçmişte yaşadığı yanlış evililiğin yaralarını sarmaya çalışan, attığı adımlara dikkat eden bir annedir. Cemal ise sosyal, geçmişinden kurtulmak isteyen gamsız bir adamdır. Bu zıt karakterli ikilinin tanışması önce kavgalı olacaksa da zamanla hüzünlü bir aşka dönüşecektir. Geçmişlerinin derinlerine indiklerinde ikisinin de ikinci bir şansa ihtiyacı olduğu ortaya çıkar.

Başrollerinde Nurgül Yeşilçay ve Özcan Deniz'in yer aldığı filmin senaristliğini ve yönetmenliğini de Özcan Deniz üstleniyor. Çekimlerinin büyük bölümü İstanbul'da gerçekleştirilen filmin oyuncu kadrosunda ayrıca Mesut Can Tomay, Afra Saraçoğlu, Berrin Arısoy Akhasanoğlu, Fulya Şirin, Anıl Altınöz, Aybike Turan, Duygu Çelebi ve Füsun Erbulak da yer alıyor.



NFO kısmındadır




Dolunay BL 12 HDTvRip 720p AC3 by ramses77 TORK

Genişletmek için Tıkla!
Dün Saat: 23:42 , TheWelleTy Tarafından Yüklendi.
Kaynaklar: 8 / İndirilen: 0 / Boyut: 1.1 GB / Tamamlandı: 20
Torrenti İndir  Torrenti Şikayet Et Torrent Tanımı Tanıtım Videosu
IMDB Puanı: 5.9 5.9/10 Kategori: Aile | Romantik
Kategori: TV Kayıtları > Yerli / Dizi
http://www.imdb.com/title/tt7115498/

Dolunay BL 12 HDTvRip 720p AC3 by ramses77 TORK





Genişlet Kod:
Genel
Eşsiz ID                                 :248222656680254069249636430933292122158 (0xBABDF1DA528872AF955741A0A656802E)
Tam isim                                 :E:\Diziler\Dolunay\Dolunay.BL.12.HDTvRip.720p.AC3.by.ramses77.TORK.mkv
Biçim                                    :Matroska
Biçim sürümü                             :Version 2
Dosya boyutu                             :1.10 GiB
Süre                                     :2 s 19dk
Kapsamlı bit oranı                       :1 128 kb/s
Kodlanma tarihi                          :UTC 2017-09-19 21:39:24
Yapım uygulaması                         :mkvmerge v3.3.0 ('Language') built on Mar 24 2010 14:59:24
Yapım kütüphanesi                        :libebml v0.8.0 + libmatroska v0.9.0

Görüntü
ID                                       :1
Biçim                                    :AVC
Biçim/Bilgi                              :Advanced Video Codec
Biçim profili                            :High@L3.1
Biçim ayarları                           :CABAC / 4 Ref Frames
Biçim ayarları, CABAC                    :Evet
Biçim ayarları, RefFrames                :4 kare
Kodek ID                                 :V_MPEG4/ISO/AVC
Süre                                     :2 s 19dk
Bit oranı                                :1 002 kb/s
Genişlik                                 :1 280 piksel
Yükseklik                                :720 piksel
Görüntü en-boy oranı                     :16:9
Kare hız modu                            :Sabit
Kare hızı                                :25.000 kare/s
Renk alanı                               :YUV
Krom altörnekleme                        :4:2:0
Bit yoğunluğu                            :8 bit
Tarama türü                              :Aşamalı
Bit/(Piksel*Kare)                        :0.043
Akış boyutu                              :975 MiB (87%)
Yapım kütüphanesi                        :x264 core 128 r2216 198a7ea
Kodlama ayarları                         :cabac=1 / ref=3 / deblock=1:-1:-1 / analyse=0x3:0x113 / me=hex / subme=7 / psy=1 / psy_rd=1.00:0.15 / mixed_ref=1 / me_range=16 / chroma_me=1 / trellis=1 / 8x8dct=1 / cqm=0 / deadzone=21,11 / fast_pskip=1 / chroma_qp_offset=-3 / threads=12 / lookahead_threads=2 / sliced_threads=0 / nr=0 / decimate=1 / interlaced=0 / bluray_compat=0 / constrained_intra=0 / bframes=3 / b_pyramid=2 / b_adapt=1 / b_bias=0 / direct=1 / weightb=1 / open_gop=0 / weightp=2 / keyint=250 / keyint_min=25 / scenecut=40 / intra_refresh=0 / rc_lookahead=40 / rc=2pass / mbtree=1 / bitrate=1002 / ratetol=1.0 / qcomp=0.60 / qpmin=0 / qpmax=69 / qpstep=4 / cplxblur=20.0 / qblur=0.5 / ip_ratio=1.40 / aq=1:1.00
Default                                  :Hayır
Forced                                   :Hayır

Ses
ID                                       :2
Biçim                                    :AC-3
Biçim/Bilgi                              :Audio Coding 3
Biçim ayarları, Endianess                :Big
Kodek ID                                 :A_AC3
Süre                                     :2 s 19dk
Bit oranı modu                           :Sabit
Bit oranı                                :128 kb/s
Kanal                                    :2 kanal
Kanal konumları                          :Front: L R
Örnekleme oranı                          :48.0 kHz
Kare hızı                                :31.250 kare/s (1536 SPF)
Bit yoğunluğu                            :16 bit
Sıkıştırma kipi                          :Kayıplı
Akış boyutu                              :128 MiB (11%)
Dil                                      :İngilizce
ServiceKind/String                       :Complete Main
Default                                  :Hayır
Forced                                   :Hayır




Eskiya Dunyaya Hukumdar Olmaz BL 72 HDTvRip 720p AC3 by TheWelleTy TORK

Genişletmek için Tıkla!
Dün Saat: 22:45 , TheWelleTy Tarafından Yüklendi.
Kaynaklar: 32 / İndirilen: 1 / Boyut: 957.91 MB / Tamamlandı: 70
Torrenti İndir  Torrenti Şikayet Et Torrent Tanımı Tanıtım Videosu
IMDB Puanı: 7.2 7.2/10 Kategori: Aksiyon | Macera
Kategori: TV Kayıtları > Yerli / Dizi
http://www.imdb.com/title/tt5175270/

Eskiya Dunyaya Hukumdar Olmaz BL 72 HDTvRip 720p AC3 by TheWelleTy TORK





Genişlet Kod:
General
Unique ID                   : 197548793550828142456282500747537335221 (0x949E8381B175A03E942F0F79F49EC3B5)
Complete name               : D:\TORK\Eskiya.Dunyaya.Hukumdar.Olmaz.BL.72.HDTvRip.720p.AC3.by.TheWelleTy.TORK.mkv
Format                      : Matroska
Format version              : Version 2
File size                   : 958 MiB
Duration                    : 1 h 58 min
Overall bit rate            : 1 132 kb/s
Encoded date                : UTC 2017-09-19 20:45:09
Writing application         : mkvmerge v3.3.0 ('Language') built on Mar 24 2010 14:59:24
Writing library             : libebml v0.8.0 + libmatroska v0.9.0

Video
ID                          : 1
Format                      : AVC
Format/Info                 : Advanced Video Codec
Format profile              : High@L3.1
Format settings, CABAC      : Yes
Format settings, RefFrames  : 4 frames
Codec ID                    : V_MPEG4/ISO/AVC
Duration                    : 1 h 58 min
Bit rate                    : 999 kb/s
Width                       : 1 280 pixels
Height                      : 720 pixels
Display aspect ratio        : 16:9
Frame rate mode             : Constant
Frame rate                  : 25.000 FPS
Color space                 : YUV
Chroma subsampling          : 4:2:0
Bit depth                   : 8 bits
Scan type                   : Progressive
Bits/(Pixel*Frame)          : 0.043
Stream size                 : 831 MiB (87%)
Writing library             : x264 core 133 r2334 a3ac64b
Encoding settings           : cabac=1 / ref=3 / deblock=1:-1:-1 / analyse=0x3:0x113 / me=hex / subme=7 / psy=1 / psy_rd=1.00:0.15 / mixed_ref=1 / me_range=16 / chroma_me=1 / trellis=1 / 8x8dct=1 / cqm=0 / deadzone=21,11 / fast_pskip=1 / chroma_qp_offset=-3 / threads=18 / lookahead_threads=3 / sliced_threads=0 / nr=0 / decimate=1 / interlaced=0 / bluray_compat=0 / constrained_intra=0 / bframes=3 / b_pyramid=2 / b_adapt=1 / b_bias=0 / direct=1 / weightb=1 / open_gop=0 / weightp=2 / keyint=250 / keyint_min=25 / scenecut=40 / intra_refresh=0 / rc_lookahead=40 / rc=abr / mbtree=1 / bitrate=999 / ratetol=1.0 / qcomp=0.60 / qpmin=0 / qpmax=69 / qpstep=4 / ip_ratio=1.40 / aq=1:1.00
Default                     : No
Forced                      : No

Audio
ID                          : 2
Format                      : AC-3
Format/Info                 : Audio Coding 3
Format settings, Endianness : Big
Codec ID                    : A_AC3
Duration                    : 1 h 58 min
Bit rate mode               : Constant
Bit rate                    : 128 kb/s
Channel(s)                  : 2 channels
Channel positions           : Front: L R
Sampling rate               : 48.0 kHz
Frame rate                  : 31.250 FPS (1536 SPF)
Bit depth                   : 16 bits
Compression mode            : Lossy
Stream size                 : 108 MiB (11%)
Language                    : English
Service kind                : Complete Main
Default                     : No
Forced                      : No




Tutsak BL 01 HDTvRip 720p AC3 by TheWelleTy TORK

Genişletmek için Tıkla!
Dün Saat: 21:43 , TheWelleTy Tarafından Yüklendi.
Kaynaklar: 15 / İndirilen: 0 / Boyut: 1004.43 MB / Tamamlandı: 28
Torrenti İndir  Torrenti Şikayet Et Torrent Tanımı Tanıtım Videosu
IMDB Puanı: 4.9 4.9/10 Kategori: Aksiyon
Kategori: TV Kayıtları > Yerli / Dizi
http://www.imdb.com/title/tt0983986/

Tutsak BL 01 HDTvRip 720p AC3 by TheWelleTy TORK





Genişlet Kod:
General
Unique ID                   : 183279208528734160118932885626299107033 (0x89E24AA592186AACAE55629F3DB846D9)
Complete name               : D:\TORK\Tutsak.BL.01.HDTvRip.720p.AC3.by.TheWelleTy.TORK.mkv
Format                      : Matroska
Format version              : Version 2
File size                   : 1 004 MiB
Duration                    : 2 h 4 min
Overall bit rate            : 1 124 kb/s
Encoded date                : UTC 2017-09-19 19:39:55
Writing application         : mkvmerge v3.3.0 ('Language') built on Mar 24 2010 14:59:24
Writing library             : libebml v0.8.0 + libmatroska v0.9.0

Video
ID                          : 1
Format                      : AVC
Format/Info                 : Advanced Video Codec
Format profile              : High@L3.1
Format settings, CABAC      : Yes
Format settings, RefFrames  : 4 frames
Codec ID                    : V_MPEG4/ISO/AVC
Duration                    : 2 h 4 min
Bit rate                    : 1 006 kb/s
Width                       : 1 280 pixels
Height                      : 720 pixels
Display aspect ratio        : 16:9
Frame rate mode             : Constant
Frame rate                  : 25.000 FPS
Color space                 : YUV
Chroma subsampling          : 4:2:0
Bit depth                   : 8 bits
Scan type                   : Progressive
Bits/(Pixel*Frame)          : 0.044
Stream size                 : 870 MiB (87%)
Writing library             : x264 core 133 r2334 a3ac64b
Encoding settings           : cabac=1 / ref=3 / deblock=1:-1:-1 / analyse=0x3:0x113 / me=hex / subme=7 / psy=1 / psy_rd=1.00:0.15 / mixed_ref=1 / me_range=16 / chroma_me=1 / trellis=1 / 8x8dct=1 / cqm=0 / deadzone=21,11 / fast_pskip=1 / chroma_qp_offset=-3 / threads=18 / lookahead_threads=3 / sliced_threads=0 / nr=0 / decimate=1 / interlaced=0 / bluray_compat=0 / constrained_intra=0 / bframes=3 / b_pyramid=2 / b_adapt=1 / b_bias=0 / direct=1 / weightb=1 / open_gop=0 / weightp=2 / keyint=250 / keyint_min=25 / scenecut=40 / intra_refresh=0 / rc_lookahead=40 / rc=abr / mbtree=1 / bitrate=1006 / ratetol=1.0 / qcomp=0.60 / qpmin=0 / qpmax=69 / qpstep=4 / ip_ratio=1.40 / aq=1:1.00
Default                     : No
Forced                      : No

Audio
ID                          : 2
Format                      : AC-3
Format/Info                 : Audio Coding 3
Format settings, Endianness : Big
Codec ID                    : A_AC3
Duration                    : 2 h 4 min
Bit rate mode               : Constant
Bit rate                    : 128 kb/s
Channel(s)                  : 2 channels
Channel positions           : Front: L R
Sampling rate               : 48.0 kHz
Frame rate                  : 31.250 FPS (1536 SPF)
Bit depth                   : 16 bits
Compression mode            : Lossy
Stream size                 : 114 MiB (11%)
Language                    : English
Service kind                : Complete Main
Default                     : No
Forced                      : No




Babam ve Oğlum 2005 720p WEB-DL x264 Sansürsüz TORK

Genişletmek için Tıkla!
Dün Saat: 20:45 , TORKBOT Tarafından Yüklendi.
Kaynaklar: 7 / İndirilen: 0 / Boyut: 1.29 GB / Tamamlandı: 10
Torrenti İndir  Torrenti Şikayet Et Torrent Tanımı NFO Tanıtım Videosu
IMDB Puanı: 8.5 8.5/10 Kategori: Drama
Kategori: Yerli Filmler > 720p
Anonim Yükleyicihttp://www.imdb.com/title/tt0476735/

Babam ve Oğlum 2005 720p WEB-DL x264 Sansürsüz TORK
Sol kanat gazeteci ailesinin 1980'li yıllarda Türkiye'deki askeri darbeyle parçalanması.
Ant-Man Karınca Adam 2015 BluRay 1080p x264 TRDUB TORK

Genişletmek için Tıkla!
Dün Saat: 19:22 , TORKBOT Tarafından Yüklendi.
Kaynaklar: 3 / İndirilen: 2 / Boyut: 2.11 GB / Tamamlandı: 6
Torrenti İndir  Torrenti Şikayet Et Torrent Tanımı NFO Tanıtım Videosu
IMDB Puanı: 7.3 7.3/10 Kategori: Aksiyon | Komedi | Macera
Kategori: Yabancı Filmler > 1080p
Anonim Yükleyicihttp://www.imdb.com/title/tt0478970/

Ant-Man Karınca Adam 2015 BluRay 1080p x264 TRDUB TORK
Biyokimyacı Dr. Hank Pym (Michael Douglas) yaptığı son deneylerde, maddelerin boyutlarını değiştirmeyi keşfeder. Bu keşfi ilk önce üzerinde test eder ve yarattığı araçlarla birlikte böceklerle iletişime geçmeyi başarır. Yarattığı özel kıyafeti giyerek kötü güçlere karşı mücadele etmesi için Scott Lang'i (Paul Rudd) seçer, bu kıyafetin olağanüstü güçlerini kullanarak dünyayı kurtarmaya girişirler
Ant-Man Karınca Adam 2015 BluRay 1080p x264 DUAL TR-EN TORK

Genişletmek için Tıkla!
Dün Saat: 19:06 , TORKBOT Tarafından Yüklendi.
Kaynaklar: 6 / İndirilen: 0 / Boyut: 2.43 GB / Tamamlandı: 11
Torrenti İndir  Torrenti Şikayet Et Torrent Tanımı NFO Tanıtım Videosu
IMDB Puanı: 7.3 7.3/10 Kategori: Aksiyon | Komedi | Macera
Kategori: Yabancı Filmler > 1080p
Anonim Yükleyicihttp://www.imdb.com/title/tt0478970/

Ant-Man Karınca Adam 2015 BluRay 1080p x264 DUAL TR-EN TORK
Biyokimyacı Dr. Hank Pym (Michael Douglas) yaptığı son deneylerde, maddelerin boyutlarını değiştirmeyi keşfeder. Bu keşfi ilk önce üzerinde test eder ve yarattığı araçlarla birlikte böceklerle iletişime geçmeyi başarır. Yarattığı özel kıyafeti giyerek kötü güçlere karşı mücadele etmesi için Scott Lang'i (Paul Rudd) seçer, bu kıyafetin olağanüstü güçlerini kullanarak dünyayı kurtarmaya girişirler
Isimsizler BL 15 HDTvRip 720p AC3 by ramses77 TORK

Genişletmek için Tıkla!
Dün Saat: 10:30 , TheWelleTy Tarafından Yüklendi.
Kaynaklar: 18 / İndirilen: 0 / Boyut: 913.15 MB / Tamamlandı: 46
Torrenti İndir  Torrenti Şikayet Et Torrent Tanımı
Kategori: Aksiyon
Kategori: TV Kayıtları > Yerli / Dizi

Isimsizler BL 15 HDTvRip 720p AC3 by ramses77 TORK





Genişlet Kod:
General
Unique ID                                : 238091522691414709273628123063353118039 (0xB31EC261DA4F81EFAC988EF54B288D57)
Complete name                            : D:\DIZILER\Isimsizler\Isimsizler.BL.15.HDTvRip.720.AC3.by.ramses77.TORK.mkv
Format                                   : Matroska
Format version                           : Version 2
File size                                : 913 MiB
Duration                                 : 1h 53mn
Overall bit rate                         : 1 129 Kbps
Encoded date                             : UTC 2017-09-19 08:26:21
Writing application                      : mkvmerge v3.3.0 ('Language') built on Mar 24 2010 14:59:24
Writing library                          : libebml v0.8.0 + libmatroska v0.9.0

Video
ID                                       : 1
Format                                   : AVC
Format/Info                              : Advanced Video Codec
Format profile                           : High@L3.1
Format settings, CABAC                   : Yes
Format settings, ReFrames                : 4 frames
Codec ID                                 : V_MPEG4/ISO/AVC
Duration                                 : 1h 53mn
Bit rate                                 : 1 000 Kbps
Width                                    : 1 280 pixels
Height                                   : 720 pixels
Display aspect ratio                     : 16:9
Frame rate mode                          : Constant
Frame rate                               : 25.000 fps
Color space                              : YUV
Chroma subsampling                       : 4:2:0
Bit depth                                : 8 bits
Scan type                                : Progressive
Bits/(Pixel*Frame)                       : 0.043
Stream size                              : 791 MiB (87%)
Writing library                          : x264 core 128 r2216 198a7ea
Encoding settings                        : cabac=1 / ref=3 / deblock=1:-1:-1 / analyse=0x3:0x113 / me=hex / subme=7 / psy=1 / psy_rd=1.00:0.15 / mixed_ref=1 / me_range=16 / chroma_me=1 / trellis=1 / 8x8dct=1 / cqm=0 / deadzone=21,11 / fast_pskip=1 / chroma_qp_offset=-3 / threads=12 / lookahead_threads=2 / sliced_threads=0 / nr=0 / decimate=1 / interlaced=0 / bluray_compat=0 / constrained_intra=0 / bframes=3 / b_pyramid=2 / b_adapt=1 / b_bias=0 / direct=1 / weightb=1 / open_gop=0 / weightp=2 / keyint=250 / keyint_min=25 / scenecut=40 / intra_refresh=0 / rc_lookahead=40 / rc=2pass / mbtree=1 / bitrate=1000 / ratetol=1.0 / qcomp=0.60 / qpmin=0 / qpmax=69 / qpstep=4 / cplxblur=20.0 / qblur=0.5 / ip_ratio=1.40 / aq=1:1.00
Default                                  : No
Forced                                   : No

Audio
ID                                       : 2
Format                                   : AC-3
Format/Info                              : Audio Coding 3
Mode extension                           : CM (complete main)
Format settings, Endianness              : Big
Codec ID                                 : A_AC3
Duration                                 : 1h 53mn
Bit rate mode                            : Constant
Bit rate                                 : 128 Kbps
Channel(s)                               : 2 channels
Channel positions                        : Front: L R
Sampling rate                            : 48.0 KHz
Compression mode                         : Lossy
Stream size                              : 103 MiB (11%)
Language                                 : English
Default                                  : No
Forced                                   : No









Kirgin Cicekler Yeni Sezon BL 89 HDTvRip 720p AC3 by 07BRN91 TORK

Genişletmek için Tıkla!
Dün Saat: 01:13 , 07BRN91 Tarafından Yüklendi.
Kaynaklar: 4 / İndirilen: 0 / Boyut: 1.22 GB / Tamamlandı: 9
Torrenti İndir  Torrenti Şikayet Et Torrent Tanımı
Kategori: TV Kayıtları > Yerli / Dizi

Kirgin Cicekler Yeni Sezon BL 89 HDTvRip 720p AC3 by 07BRN91 TORK





Açiklama : Benim için öldün anladın mı? Katilsin sen!



Genişlet Kod:
İnfo Yapıştır




Kayitdisi BL 01 HDTvRip 720p AC3 by ramses77 TORK

Genişletmek için Tıkla!
Pazartesi saat 23:00 de , TheWelleTy Tarafından Yüklendi.
Kaynaklar: 17 / İndirilen: 0 / Boyut: 933.78 MB / Tamamlandı: 56
Torrenti İndir  Torrenti Şikayet Et Torrent Tanımı
Kategori: Aksiyon | Macera
Kategori: TV Kayıtları > Yerli / Dizi

Kayitdisi BL 01 HDTvRip 720p AC3 by ramses77 TORK





Genişlet Kod:
Genel
Eşsiz ID                                 :213879636304362244224260719530977651123 (0xA0E7B8380DED232D9ECFD2C907EDE9B3)
Tam isim                                 :E:\Diziler\Kayıtdışı\Kayitdisi.BL.01.HDTvRip.720p.AC3.by.ramses77.TORK.mkv
Biçim                                    :Matroska
Biçim sürümü                             :Version 2
Dosya boyutu                             :934 MiB
Süre                                     :1 s 55dk
Kapsamlı bit oranı                       :1 128 kb/s
Kodlanma tarihi                          :UTC 2017-09-18 20:55:02
Yapım uygulaması                         :mkvmerge v3.3.0 ('Language') built on Mar 24 2010 14:59:24
Yapım kütüphanesi                        :libebml v0.8.0 + libmatroska v0.9.0

Görüntü
ID                                       :1
Biçim                                    :AVC
Biçim/Bilgi                              :Advanced Video Codec
Biçim profili                            :High@L3.1
Biçim ayarları                           :CABAC / 4 Ref Frames
Biçim ayarları, CABAC                    :Evet
Biçim ayarları, RefFrames                :4 kare
Kodek ID                                 :V_MPEG4/ISO/AVC
Süre                                     :1 s 55dk
Bit oranı                                :1 000 kb/s
Genişlik                                 :1 280 piksel
Yükseklik                                :720 piksel
Görüntü en-boy oranı                     :16:9
Kare hız modu                            :Sabit
Kare hızı                                :25.000 kare/s
Renk alanı                               :YUV
Krom altörnekleme                        :4:2:0
Bit yoğunluğu                            :8 bit
Tarama türü                              :Aşamalı
Bit/(Piksel*Kare)                        :0.043
Akış boyutu                              :809 MiB (87%)
Yapım kütüphanesi                        :x264 core 128 r2216 198a7ea
Kodlama ayarları                         :cabac=1 / ref=3 / deblock=1:-1:-1 / analyse=0x3:0x113 / me=hex / subme=7 / psy=1 / psy_rd=1.00:0.15 / mixed_ref=1 / me_range=16 / chroma_me=1 / trellis=1 / 8x8dct=1 / cqm=0 / deadzone=21,11 / fast_pskip=1 / chroma_qp_offset=-3 / threads=12 / lookahead_threads=2 / sliced_threads=0 / nr=0 / decimate=1 / interlaced=0 / bluray_compat=0 / constrained_intra=0 / bframes=3 / b_pyramid=2 / b_adapt=1 / b_bias=0 / direct=1 / weightb=1 / open_gop=0 / weightp=2 / keyint=250 / keyint_min=25 / scenecut=40 / intra_refresh=0 / rc_lookahead=40 / rc=abr / mbtree=1 / bitrate=1000 / ratetol=1.0 / qcomp=0.60 / qpmin=0 / qpmax=69 / qpstep=4 / ip_ratio=1.40 / aq=1:1.00
Default                                  :Hayır
Forced                                   :Hayır

Ses
ID                                       :2
Biçim                                    :AC-3
Biçim/Bilgi                              :Audio Coding 3
Biçim ayarları, Endianess                :Big
Kodek ID                                 :A_AC3
Süre                                     :1 s 55dk
Bit oranı modu                           :Sabit
Bit oranı                                :128 kb/s
Kanal                                    :2 kanal
Kanal konumları                          :Front: L R
Örnekleme oranı                          :48.0 kHz
Kare hızı                                :31.250 kare/s (1536 SPF)
Bit yoğunluğu                            :16 bit
Sıkıştırma kipi                          :Kayıplı
Akış boyutu                              :106 MiB (11%)
Dil                                      :İngilizce
ServiceKind/String                       :Complete Main
Default                                  :Hayır
Forced                                   :Hayır




Soz BL 13 HDTvRip 720p AC3 by TheWelleTy TORK

Genişletmek için Tıkla!
Pazartesi saat 22:45 de , TheWelleTy Tarafından Yüklendi.
Kaynaklar: 24 / İndirilen: 0 / Boyut: 1.14 GB / Tamamlandı: 76
Torrenti İndir  Torrenti Şikayet Et Torrent Tanımı Tanıtım Videosu
IMDB Puanı: 7.4 7.4/10 Kategori: Aksiyon | Macera
Kategori: TV Kayıtları > Yerli / Dizi
http://www.imdb.com/title/tt6942056/

Soz BL 13 HDTvRip 720p AC3 by TheWelleTy TORK





Genişlet Kod:
General
Unique ID                   : 173358507709868451053340670207528655255 (0x826BA2551DC7C1979E423FA5B8E1D997)
Complete name               : D:\TORK\Soz.BL.13.HDTvRip.720p.AC3.by.TheWelleTy.TORK.mkv
Format                      : Matroska
Format version              : Version 2
File size                   : 1.14 GiB
Duration                    : 2 h 23 min
Overall bit rate            : 1 133 kb/s
Encoded date                : UTC 2017-09-18 20:43:29
Writing application         : mkvmerge v3.3.0 ('Language') built on Mar 24 2010 14:59:24
Writing library             : libebml v0.8.0 + libmatroska v0.9.0

Video
ID                          : 1
Format                      : AVC
Format/Info                 : Advanced Video Codec
Format profile              : High@L3.1
Format settings, CABAC      : Yes
Format settings, RefFrames  : 4 frames
Codec ID                    : V_MPEG4/ISO/AVC
Duration                    : 2 h 23 min
Bit rate                    : 1 002 kb/s
Width                       : 1 280 pixels
Height                      : 720 pixels
Display aspect ratio        : 16:9
Frame rate mode             : Constant
Frame rate                  : 25.000 FPS
Color space                 : YUV
Chroma subsampling          : 4:2:0
Bit depth                   : 8 bits
Scan type                   : Progressive
Bits/(Pixel*Frame)          : 0.043
Stream size                 : 1 008 MiB (87%)
Writing library             : x264 core 133 r2334 a3ac64b
Encoding settings           : cabac=1 / ref=3 / deblock=1:-1:-1 / analyse=0x3:0x113 / me=hex / subme=7 / psy=1 / psy_rd=1.00:0.15 / mixed_ref=1 / me_range=16 / chroma_me=1 / trellis=1 / 8x8dct=1 / cqm=0 / deadzone=21,11 / fast_pskip=1 / chroma_qp_offset=-3 / threads=18 / lookahead_threads=3 / sliced_threads=0 / nr=0 / decimate=1 / interlaced=0 / bluray_compat=0 / constrained_intra=0 / bframes=3 / b_pyramid=2 / b_adapt=1 / b_bias=0 / direct=1 / weightb=1 / open_gop=0 / weightp=2 / keyint=250 / keyint_min=25 / scenecut=40 / intra_refresh=0 / rc_lookahead=40 / rc=abr / mbtree=1 / bitrate=1002 / ratetol=1.0 / qcomp=0.60 / qpmin=0 / qpmax=69 / qpstep=4 / ip_ratio=1.40 / aq=1:1.00
Default                     : No
Forced                      : No

Audio
ID                          : 2
Format                      : AC-3
Format/Info                 : Audio Coding 3
Format settings, Endianness : Big
Codec ID                    : A_AC3
Duration                    : 2 h 23 min
Bit rate mode               : Constant
Bit rate                    : 128 kb/s
Channel(s)                  : 2 channels
Channel positions           : Front: L R
Sampling rate               : 48.0 kHz
Frame rate                  : 31.250 FPS (1536 SPF)
Bit depth                   : 16 bits
Compression mode            : Lossy
Stream size                 : 131 MiB (11%)
Language                    : English
Service kind                : Complete Main
Default                     : No
Forced                      : No




Sessizlik - Silence 2017 1080p BluRay x264 DUAL TR-ENG TORK

Genişletmek için Tıkla!
Pazartesi saat 05:42 de , playdevil Tarafından Yüklendi.
Kaynaklar: 9 / İndirilen: 0 / Boyut: 2.65 GB / Tamamlandı: 20
Torrenti İndir  Torrenti Şikayet Et Torrent Tanımı NFO Tanıtım Videosu
IMDB Puanı: 7.2 7.2/10 Kategori: Drama | Gizem | Macera
Kategori: Yabancı Filmler > 1080p
http://www.imdb.com/title/tt0490215/

Sessizlik - Silence 2017 1080p BluRay x264 DUAL TR-ENG TORK





AÇIKLAMA

Vizyon tarihi: 21 Nisan 2017 (2s 42dk)

Yönetmen: Martin Scorsese

Oyuncular: Andrew Garfield, Adam Driver, Liam Neeson

Tür: Dram, Tarihi

Ülke: ABD, İtalya, Japonya, Meksika

Film, 17. yüzyılda yaşayan iki rahibin karşılaştıkları şiddet ve baskıyı konu alıyor. Onyedinci yüzyılda Hristiyanlığı tanıtmak ve kayıp olan akıl hocaları Ferreira'yı bulmak için yola çıkan iki Cizvit papaz, Rodrigues ve Garrpe, Japonya'ya geldiklerinde şiddet ve zulümle karşı karşıya kalırlar. Katolikliğin yasadışı olduğu ve varlıklarının yasak olduğu bir dönemde Japonya'ya gelen ikilinin inancı ciddi bir teste tabi tutulacaktır...

Filmin yönetmen koltuğunda usta yönetmen Martin Scorsese oturuyor. Filmin kadrosunda Andrew Garfield, Adam Driver, Liam Neeson, Tadanobu Asano, Issey Ogata, Ciaran Hinds, Yosuke Kubozuka ve Yoshi Oida yer alıyor.



NFO kısmındadır




Sessizlik - Silence 2017 720p BluRay x264 DUAL TR-ENG TORK

Genişletmek için Tıkla!
Pazartesi saat 05:42 de , playdevil Tarafından Yüklendi.
Kaynaklar: 11 / İndirilen: 0 / Boyut: 1.35 GB / Tamamlandı: 26
Torrenti İndir  Torrenti Şikayet Et Torrent Tanımı NFO Tanıtım Videosu
IMDB Puanı: 7.2 7.2/10 Kategori: Drama | Gizem | Macera
Kategori: Yabancı Filmler > 720p
http://www.imdb.com/title/tt0490215/

Sessizlik - Silence 2017 720p BluRay x264 DUAL TR-ENG TORK





AÇIKLAMA

Vizyon tarihi: 21 Nisan 2017 (2s 42dk)

Yönetmen: Martin Scorsese

Oyuncular: Andrew Garfield, Adam Driver, Liam Neeson

Tür: Dram, Tarihi

Ülke: ABD, İtalya, Japonya, Meksika

Film, 17. yüzyılda yaşayan iki rahibin karşılaştıkları şiddet ve baskıyı konu alıyor. Onyedinci yüzyılda Hristiyanlığı tanıtmak ve kayıp olan akıl hocaları Ferreira'yı bulmak için yola çıkan iki Cizvit papaz, Rodrigues ve Garrpe, Japonya'ya geldiklerinde şiddet ve zulümle karşı karşıya kalırlar. Katolikliğin yasadışı olduğu ve varlıklarının yasak olduğu bir dönemde Japonya'ya gelen ikilinin inancı ciddi bir teste tabi tutulacaktır...

Filmin yönetmen koltuğunda usta yönetmen Martin Scorsese oturuyor. Filmin kadrosunda Andrew Garfield, Adam Driver, Liam Neeson, Tadanobu Asano, Issey Ogata, Ciaran Hinds, Yosuke Kubozuka ve Yoshi Oida yer alıyor.



NFO kısmındadır




Nefesini Tut - Dont Breathe 2016 1080p BluRay x264 DUAL TR-ENG TORK

Genişletmek için Tıkla!
Saat: 07:14 , playdevil Tarafından Yüklendi.
Kaynaklar: 1 / İndirilen: 0 / Boyut: 1.83 GB / Tamamlandı: 0
Torrenti İndir  Torrenti Şikayet Et Torrent Tanımı NFO Tanıtım Videosu
IMDB Puanı: 7.2 7.2/10 Kategori: Gerilim | Korku | Suç
Kategori: Yabancı Filmler > 1080p
http://www.imdb.com/title/tt4160708/

Nefesini Tut - Dont Breathe 2016 1080p BluRay x264 DUAL TR-ENG TORK





AÇIKLAMA

Nefesini Tut kör bir adamın evine girip hırsızlık yaparak yakalanmadan kurtulabileceklerini düşünen bir grup genci temel alıyor. İstismarcı annesinden kurtulup, kız kardeşini her ikisi için de sonu yokmuş gibi görünen bu hayattan kurtartamaya kararlı Rocky, arkadaşları Alex ile Money'nin planları oldukça basittir, kör bir adamın evinde kilitli tuttuğu odaya girmek, onun engelli oluşundan yararlanarak da evini soymak. Ancak işler tam olarak planlandığı gibi gitmez. Zira hafife aldıkları ev sahibi aslında oldukça tehlikeli bir adamdır. Planda yanıldıklarını anladıklarında kusursuz bir suç yerine ölümcül bir hata işlediklerini görürler.

Gerilim türündeki film, Kötü Ruh filminin yönetmen koltuğundan aşina olduğumuz Fede Alvarez'in imzasını taşıyor. Başrollerini Dylan Minnette, Stephen Lang, Jane Levy, Daniel Zovatto, Sergej Onopko ve Jon Donahue'nun üstlendiği yapımın senaryosunda ise yönetmenle birlikte Rodo Sayagues imzası bulunuyor.



NFO kısmındadır




Nefesini Tut - Dont Breathe 2016 720p BluRay x264 DUAL TR-ENG TORK

Genişletmek için Tıkla!
Saat: 07:13 , playdevil Tarafından Yüklendi.
Kaynaklar: 1 / İndirilen: 0 / Boyut: 1.21 GB / Tamamlandı: 3
Torrenti İndir  Torrenti Şikayet Et Torrent Tanımı NFO Tanıtım Videosu
IMDB Puanı: 7.2 7.2/10 Kategori: Gerilim | Korku | Suç
Kategori: Yabancı Filmler > 720p
http://www.imdb.com/title/tt4160708/

Nefesini Tut - Dont Breathe 2016 720p BluRay x264 DUAL TR-ENG TORK





AÇIKLAMA

Nefesini Tut kör bir adamın evine girip hırsızlık yaparak yakalanmadan kurtulabileceklerini düşünen bir grup genci temel alıyor. İstismarcı annesinden kurtulup, kız kardeşini her ikisi için de sonu yokmuş gibi görünen bu hayattan kurtartamaya kararlı Rocky, arkadaşları Alex ile Money'nin planları oldukça basittir, kör bir adamın evinde kilitli tuttuğu odaya girmek, onun engelli oluşundan yararlanarak da evini soymak. Ancak işler tam olarak planlandığı gibi gitmez. Zira hafife aldıkları ev sahibi aslında oldukça tehlikeli bir adamdır. Planda yanıldıklarını anladıklarında kusursuz bir suç yerine ölümcül bir hata işlediklerini görürler.

Gerilim türündeki film, Kötü Ruh filminin yönetmen koltuğundan aşina olduğumuz Fede Alvarez'in imzasını taşıyor. Başrollerini Dylan Minnette, Stephen Lang, Jane Levy, Daniel Zovatto, Sergej Onopko ve Jon Donahue'nun üstlendiği yapımın senaryosunda ise yönetmenle birlikte Rodo Sayagues imzası bulunuyor.



NFO kısmındadır




WebMaster'lara Ozel Font Arsivi -TORK by 07BRN91

Genişletmek için Tıkla!
Dün Saat: 01:22 , 07BRN91 Tarafından Yüklendi.
Kaynaklar: 7 / İndirilen: 0 / Boyut: 1.37 GB / Tamamlandı: 15
Torrenti İndir  Torrenti Şikayet Et Torrent Tanımı
Kategori: Program / Oyun / Grafik > Grafik / Resim

WebMaster'lara Ozel Font Arsivi -TORK by 07BRN91





Mega Font Paket Arşivi,özenle seçilmiş harika Mega Font Paketidir tasarımcılar ve photoshop kullanıcıları için idealdir

çalışma ve projelerinizde kullanabileceğiniz Mega Font Paketi 42000 adet seç beğen tepe tepe kullan..


Zodiac Uyanıyor - Awakening the Zodiac 2017 1080p WEB-DL x264 DUAL TR-ENG TORK

Genişletmek için Tıkla!
Pazartesi saat 05:42 de , playdevil Tarafından Yüklendi.
Kaynaklar: 8 / İndirilen: 1 / Boyut: 3.55 GB / Tamamlandı: 19
Torrenti İndir  Torrenti Şikayet Et Torrent Tanımı NFO Tanıtım Videosu
IMDB Puanı: 4.9 4.9/10 Kategori: Drama | Gizem | Suç
Kategori: Yabancı Filmler > 1080p
http://www.imdb.com/title/tt6294892/

Zodiac Uyanıyor - Awakening the Zodiac 2017 1080p WEB-DL x264 DUAL TR-ENG TORK





AÇIKLAMA

Yeni gösterime giren Awakening the Zodiac filmi, Jonathan Wright tarafından yönetilirken, senaristlik koltuğunda Jennifer Archer ile Mike Horrigan oturmakta. Suç, drama ve gizem türündeki yapım ilginç bir hikayeyle karşımıza çıkıyor.

Mick Branson ve Zoe Branson çifti, tesaüdüf eseri bir seri katilin film makaralarını bulurlar ve hikaye de böyle başlar. Genç çift hiç ummadıkları ve istemedikleri bir işe bulaşırken, karşılarına da Amerika tarihinin en kötü ve en ölümcül seri katilini almış olurlar. Zamanla yarışan Branson çifti, bu süreçte seri katilden kurtulmak ve birbirlerini hayatta tutmak için uğraş verirler.

Shane West ile Leslie Bibb’in başrollerde olduğu, Stephen McHattie’nin ‘kötü adam’ olarak karşımıza çıktığı Awakening the Zodiac, gerilim türünün tutkunlarının izlemesi gereken bir yapım.



NFO kısmındadır




web counter