Lucifer S03E09 1080p WEBRip 6CH x265 HEVC TR Altyazı TORK

Genişletmek için Tıkla!
06-12-2017 23:56 , aygunatli Tarafından Yüklendi.
Kaynaklar: 0 / İndirilen: 0 / Boyut: 468.92 MB / Tamamlandı: 4
Torrenti İndir  Torrenti Şikayet Et Torrent Tanımı Tanıtım Videosu
IMDB Puanı: 8.3 8.3/10 Kategori: Drama | Fantastik | Suç
Kategori: TV Kayıtları > Yabancı / Dizi
http://www.imdb.com/title/tt4052886/

Lucifer S03E09 1080p WEBRip 6CH x265 HEVC TR Altyazı TORK



“Cehennem Lordu” Lucifer Morningstar Los Angeles Polis Departmanı için suçluları yakalamaktadır. Ancak büyük bir sırrı vardır: Bu çekici adam, aslında yeryüzüne düşmüş bir melektir! Neil Gaiman tarafından yaratılan Lucifer, Sandman isimli serinin yardımcı karakterlerinden biriydi ve daha sonra kendi çizgi romanına kavuştu. Çizgi romanında, karakter Lux isimli bir barı işletiyor.

Genişlet Kod:
Format : Matroska
Format version : Version 4 / Version 2
File size : 469 MiB
Duration : 43 min 49 s
Overall bit rate : 1 496 kb/s
Encoded date : UTC 2017-12-06 08:44:13
Writing application : mkvmerge v18.0.0 ('Apricity') 64-bit
Writing library : libebml v1.3.5 + libmatroska v1.4.8
Video
ID : 1
Format : HEVC
Format/Info : High Efficiency Video Coding
Format profile : Main@L4@Main
Codec ID : V_MPEGH/ISO/HEVC
Duration : 43 min 49 s
Bit rate : 1 290 kb/s
Width : 1 920 pixels
Height : 1 080 pixels
Display aspect ratio : 16:9
Frame rate mode : Constant
Frame rate : 23.976 (24000/1001) FPS
Color space : YUV
Chroma subsampling : 4:2:0
Bit depth : 8 bits
Bits/(Pixel*Frame) : 0.026
Stream size : 404 MiB (86%)
Default : Yes
Forced : No
Audio
ID : 2
Format : AAC
Format/Info : Advanced Audio Codec
Format profile : HE-AAC / LC
Format settings : Explicit
Codec ID : A_AAC-2
Duration : 43 min 49 s
Bit rate : 204 kb/s
Channel(s) : 6 channels
Channel(s)_Original : 18 channels
Channel positions : Front: 14, Side: C, Back: C, LFE= 2
Sampling rate : 48.0 kHz / 24.0 kHz
Frame rate : 23.438 FPS (1024 SPF)
Compression mode : Lossy
Delay relative to video : 23 ms
Stream size : 64.0 MiB (14%)
Default : Yes
Forced : No
Text
ID : 3
Format : UTF-8
Codec ID : S_TEXT/UTF8
Codec ID/Info : UTF-8 Plain Text
Duration : 43 min 4 s
Bit rate : 86 b/s
Count of elements : 987
Stream size : 27.3 KiB (0%)
Default : Yes
Forced : No
receppp111, Eminn, demircan67 ve diger 2 kisi bunu begendi.
Lucifer S03E09 1080p WEBRip 6CH x265 HEVC TR Altyazı TORK



“Cehennem Lordu” Lucifer Morningstar Los Angeles Polis Departmanı için suçluları yakalamaktadır. Ancak büyük bir sırrı vardır: Bu çekici adam, aslında yeryüzüne düşmüş bir melektir! Neil Gaiman tarafından yaratılan Lucifer, Sandman isimli serinin yardımcı karakterlerinden biriydi ve daha sonra kendi çizgi romanına kavuştu. Çizgi romanında, karakter Lux isimli bir barı işletiyor.

Genişlet Kod:
Format : Matroska
Format version : Version 4 / Version 2
File size : 469 MiB
Duration : 43 min 49 s
Overall bit rate : 1 496 kb/s
Encoded date : UTC 2017-12-06 08:44:13
Writing application : mkvmerge v18.0.0 ('Apricity') 64-bit
Writing library : libebml v1.3.5 + libmatroska v1.4.8
Video
ID : 1
Format : HEVC
Format/Info : High Efficiency Video Coding
Format profile : Main@L4@Main
Codec ID : V_MPEGH/ISO/HEVC
Duration : 43 min 49 s
Bit rate : 1 290 kb/s
Width : 1 920 pixels
Height : 1 080 pixels
Display aspect ratio : 16:9
Frame rate mode : Constant
Frame rate : 23.976 (24000/1001) FPS
Color space : YUV
Chroma subsampling : 4:2:0
Bit depth : 8 bits
Bits/(Pixel*Frame) : 0.026
Stream size : 404 MiB (86%)
Default : Yes
Forced : No
Audio
ID : 2
Format : AAC
Format/Info : Advanced Audio Codec
Format profile : HE-AAC / LC
Format settings : Explicit
Codec ID : A_AAC-2
Duration : 43 min 49 s
Bit rate : 204 kb/s
Channel(s) : 6 channels
Channel(s)_Original : 18 channels
Channel positions : Front: 14, Side: C, Back: C, LFE= 2
Sampling rate : 48.0 kHz / 24.0 kHz
Frame rate : 23.438 FPS (1024 SPF)
Compression mode : Lossy
Delay relative to video : 23 ms
Stream size : 64.0 MiB (14%)
Default : Yes
Forced : No
Text
ID : 3
Format : UTF-8
Codec ID : S_TEXT/UTF8
Codec ID/Info : UTF-8 Plain Text
Duration : 43 min 4 s
Bit rate : 86 b/s
Count of elements : 987
Stream size : 27.3 KiB (0%)
Default : Yes
Forced : No
Henüz yorum yapılmamış.
IMDB Yenile
Lucifer (2015)
42 Dakika - Crime | Drama | Fantasy
IMDB Puanı: 8.3 8.3/10 ( oy)
Yönetmen(ler):
Yazar(lar):
Yıldızlar: Tom Ellis | Lauren German | Kevin Alejandro | See full cast & crew
Kadro: Tom Ellis | Lauren German | Kevin Alejandro | D.B. Woodside | Lesley-Ann Brandt | Scarlett Estevez | Rachael Harris | Tricia Helfer | Aimee Garcia
Hiçbir Şey Bulunamadı.

web counter