Bu Sunum 0.5 Oranında Seed Edilmesi Mecburdur.
Hangman 2017 720p WEB-DL DD5.1 x264 FGT TR Altyazi TORK

Genişletmek için Tıkla!
06-12-2017 02:39 , playdevil Tarafından Yüklendi.
Kaynaklar: 10 / İndirilen: 0 / Boyut: 3.04 GB / Tamamlandı: 38
Torrenti İndir  Torrenti Şikayet Et Torrent Tanımı Tanıtım Videosu
IMDB Puanı: 5.0 5.0/10 Kategori: Gerilim | Gizem | Suç
Kategori: Yabancı Filmler > BRRip-HDRip-DVDRip-WebDL
http://www.imdb.com/title/tt3011960/

Hangman 2017 720p WEB-DL DD5.1 x264 FGT TR Altyazi TORK





AÇIKLAMA

Yönetmen: Johnny Martin

Oyuncular: Al Pacino, Karl Urban, Brittany Snow

Tür: Gerilim

Ülke: ABD

Cinayet dedektifi Ray Archer ve ortağı suç profili uzmanı Wil Ruiney, şehrin en bilinen seri katillerinden birini yakalamakla görevlendirilir. Katil, bir çocuk oyunu olan 'adam asmacayı' temel alarak insanları katletmektedir. Archer ve Ruiney, dünyanın karmaşık kapılarını aralayarak katilin izini bulmaya çalışacaklardır. Bir gazeteci ise dedektifleri takip ederek suç serisi hakkında haber yapmaya çalışır.



Genişlet Kod:
Format : Matroska
Format version : Version 4 / Version 2
File size : 3.04 GiB
Duration : 1 h 38 min
Overall bit rate : 4 418 kb/s
Encoded date : UTC 2017-12-05 23:07:02
Writing application : mkvmerge v8.5.1 ('Where you lead I will follow') 32bit
Writing library : libebml v1.3.3 + libmatroska v1.4.4
Attachments : TORK.png
Video
ID : 1
Format : AVC
Format/Info : Advanced Video Codec
Format profile : Main@L3.1
Format settings : 2 Ref Frames
Format settings, CABAC : No
Format settings, RefFrames : 2 frames
Codec ID : V_MPEG4/ISO/AVC
Duration : 1 h 38 min
Bit rate : 4 031 kb/s
Width : 1 280 pixels
Height : 538 pixels
Display aspect ratio : 2.40:1
Frame rate mode : Constant
Frame rate : 23.976 (24000/1001) FPS
Color space : YUV
Chroma subsampling : 4:2:0
Bit depth : 8 bits
Scan type : Progressive
Bits/(Pixel*Frame) : 0.244
Stream size : 2.78 GiB (91%)
Language : English
Default : Yes
Forced : No
Color range : Limited
Color primaries : BT.709
Transfer characteristics : BT.709
Matrix coefficients : BT.709
Audio
ID : 2
Format : AC-3
Format/Info : Audio Coding 3
Format settings, Endianness : Big
Codec ID : A_AC3
Duration : 1 h 38 min
Bit rate mode : Constant
Bit rate : 384 kb/s
Channel(s) : 6 channels
Channel positions : Front: L C R, Side: L R, LFE
Sampling rate : 48.0 kHz
Frame rate : 31.250 FPS (1536 SPF)
Bit depth : 16 bits
Compression mode : Lossy
Stream size : 271 MiB (9%)
Title : TOrrent tuRK
Language : English
Service kind : Complete Main
Default : Yes
Forced : No
Text
ID : 3
Format : UTF-8
Codec ID : S_TEXT/UTF8
Codec ID/Info : UTF-8 Plain Text
Duration : 1 h 33 min
Bit rate : 63 b/s
Count of elements : 1245
Stream size : 43.2 KiB (0%)
Default : Yes
Forced : No




Mlzmc, ashara, receppp111 ve diger 12 kisi bunu begendi.

Hangman 2017 720p WEB-DL DD5.1 x264 FGT TR Altyazi TORK





AÇIKLAMA

Yönetmen: Johnny Martin

Oyuncular: Al Pacino, Karl Urban, Brittany Snow

Tür: Gerilim

Ülke: ABD

Cinayet dedektifi Ray Archer ve ortağı suç profili uzmanı Wil Ruiney, şehrin en bilinen seri katillerinden birini yakalamakla görevlendirilir. Katil, bir çocuk oyunu olan 'adam asmacayı' temel alarak insanları katletmektedir. Archer ve Ruiney, dünyanın karmaşık kapılarını aralayarak katilin izini bulmaya çalışacaklardır. Bir gazeteci ise dedektifleri takip ederek suç serisi hakkında haber yapmaya çalışır.



Genişlet Kod:
Format : Matroska
Format version : Version 4 / Version 2
File size : 3.04 GiB
Duration : 1 h 38 min
Overall bit rate : 4 418 kb/s
Encoded date : UTC 2017-12-05 23:07:02
Writing application : mkvmerge v8.5.1 ('Where you lead I will follow') 32bit
Writing library : libebml v1.3.3 + libmatroska v1.4.4
Attachments : TORK.png
Video
ID : 1
Format : AVC
Format/Info : Advanced Video Codec
Format profile : Main@L3.1
Format settings : 2 Ref Frames
Format settings, CABAC : No
Format settings, RefFrames : 2 frames
Codec ID : V_MPEG4/ISO/AVC
Duration : 1 h 38 min
Bit rate : 4 031 kb/s
Width : 1 280 pixels
Height : 538 pixels
Display aspect ratio : 2.40:1
Frame rate mode : Constant
Frame rate : 23.976 (24000/1001) FPS
Color space : YUV
Chroma subsampling : 4:2:0
Bit depth : 8 bits
Scan type : Progressive
Bits/(Pixel*Frame) : 0.244
Stream size : 2.78 GiB (91%)
Language : English
Default : Yes
Forced : No
Color range : Limited
Color primaries : BT.709
Transfer characteristics : BT.709
Matrix coefficients : BT.709
Audio
ID : 2
Format : AC-3
Format/Info : Audio Coding 3
Format settings, Endianness : Big
Codec ID : A_AC3
Duration : 1 h 38 min
Bit rate mode : Constant
Bit rate : 384 kb/s
Channel(s) : 6 channels
Channel positions : Front: L C R, Side: L R, LFE
Sampling rate : 48.0 kHz
Frame rate : 31.250 FPS (1536 SPF)
Bit depth : 16 bits
Compression mode : Lossy
Stream size : 271 MiB (9%)
Title : TOrrent tuRK
Language : English
Service kind : Complete Main
Default : Yes
Forced : No
Text
ID : 3
Format : UTF-8
Codec ID : S_TEXT/UTF8
Codec ID/Info : UTF-8 Plain Text
Duration : 1 h 33 min
Bit rate : 63 b/s
Count of elements : 1245
Stream size : 43.2 KiB (0%)
Default : Yes
Forced : No




Henüz yorum yapılmamış.
IMDB Yenile
Hangman (2017)
Dakika - Crime | Mystery | Thriller
IMDB Puanı: 5.0 5.0/10 ( oy)
Yönetmen(ler): Johnny Martin
Yazar(lar): Michael Caissie | Charles Huttinger | 1 more credit
Yıldızlar: Brittany Snow | Al Pacino | Karl Urban | See full cast & crew
Kadro: Brittany Snow | Al Pacino | Karl Urban | Sarah Shahi | Michael Papajohn | Jules Haven | Odessa Rae | Steve Coulter | Sydney Shea Barker
Hiçbir Şey Bulunamadı.

web counter