Bu Sunum 0.5 Oranında Seed Edilmesi Mecburdur.
Sadettin Teksoy Zaman Tuneli (Bölüm 08) 02.12.2017 720p WEB-DL by playdevil TORK

Genişletmek için Tıkla!
06-12-2017 02:39 , playdevil Tarafından Yüklendi.
Kaynaklar: 3 / İndirilen: 0 / Boyut: 942.85 MB / Tamamlandı: 6
Torrenti İndir  Torrenti Şikayet Et Torrent Tanımı
Kategori: Belgesel | Gerilim | Gizem
Kategori: TV Kayıtları > TV Programları

Sadettin Teksoy Zaman Tuneli (Bölüm 08) 02.12.2017 720p WEB-DL by playdevil TORK





Genişlet Kod:
Format : Matroska
Format version : Version 4 / Version 2
File size : 943 MiB
Duration : 59 min 13 s
Overall bit rate : 2 226 kb/s
Encoded date : UTC 2017-12-05 22:41:46
Writing application : mkvmerge v8.5.1 ('Where you lead I will follow') 32bit
Writing library : libebml v1.3.3 + libmatroska v1.4.4

Video
ID : 1
Format : AVC
Format/Info : Advanced Video Codec
Format profile : High@L3.1
Format settings : CABAC / 4 Ref Frames
Format settings, CABAC : Yes
Format settings, RefFrames : 4 frames
Codec ID : V_MPEG4/ISO/AVC
Duration : 59 min 13 s
Bit rate : 2 000 kb/s
Width : 1 280 pixels
Height : 720 pixels
Display aspect ratio : 16:9
Frame rate mode : Constant
Frame rate : 25.000 FPS
Color space : YUV
Chroma subsampling : 4:2:0
Bit depth : 8 bits
Scan type : Progressive
Bits/(Pixel*Frame) : 0.087
Stream size : 847 MiB (90%)
Writing library : x264 core 152 r2851 ba24899

Default : Yes
Forced : No

Audio
ID : 2
Format : AC-3
Format/Info : Audio Coding 3
Format settings, Endianness : Big
Codec ID : A_AC3
Duration : 59 min 13 s
Bit rate mode : Constant
Bit rate : 224 kb/s
Channel(s) : 2 channels
Channel positions : Front: L R
Sampling rate : 48.0 kHz
Frame rate : 31.250 FPS (1536 SPF)
Bit depth : 16 bits
Compression mode : Lossy
Stream size : 94.9 MiB (10%)
Language : Turkish
Service kind : Complete Main
Default : Yes
Forced : No




receppp111, demircan67, erhan046 ve diger 3 kisi bunu begendi.

Sadettin Teksoy Zaman Tuneli (Bölüm 08) 02.12.2017 720p WEB-DL by playdevil TORK





Genişlet Kod:
Format : Matroska
Format version : Version 4 / Version 2
File size : 943 MiB
Duration : 59 min 13 s
Overall bit rate : 2 226 kb/s
Encoded date : UTC 2017-12-05 22:41:46
Writing application : mkvmerge v8.5.1 ('Where you lead I will follow') 32bit
Writing library : libebml v1.3.3 + libmatroska v1.4.4

Video
ID : 1
Format : AVC
Format/Info : Advanced Video Codec
Format profile : High@L3.1
Format settings : CABAC / 4 Ref Frames
Format settings, CABAC : Yes
Format settings, RefFrames : 4 frames
Codec ID : V_MPEG4/ISO/AVC
Duration : 59 min 13 s
Bit rate : 2 000 kb/s
Width : 1 280 pixels
Height : 720 pixels
Display aspect ratio : 16:9
Frame rate mode : Constant
Frame rate : 25.000 FPS
Color space : YUV
Chroma subsampling : 4:2:0
Bit depth : 8 bits
Scan type : Progressive
Bits/(Pixel*Frame) : 0.087
Stream size : 847 MiB (90%)
Writing library : x264 core 152 r2851 ba24899

Default : Yes
Forced : No

Audio
ID : 2
Format : AC-3
Format/Info : Audio Coding 3
Format settings, Endianness : Big
Codec ID : A_AC3
Duration : 59 min 13 s
Bit rate mode : Constant
Bit rate : 224 kb/s
Channel(s) : 2 channels
Channel positions : Front: L R
Sampling rate : 48.0 kHz
Frame rate : 31.250 FPS (1536 SPF)
Bit depth : 16 bits
Compression mode : Lossy
Stream size : 94.9 MiB (10%)
Language : Turkish
Service kind : Complete Main
Default : Yes
Forced : No




Teşekkürler dostum.
RUSTA61 06-12-2017 07:20
playdevil Bunu Beğendi.
Hiçbir Şey Bulunamadı.

web counter