Bu Sunum 0.5 Oranında Seed Edilmesi Mecburdur.
Ketenpere 2017 720p WEBRip x264 AC3 TORK

Genişletmek için Tıkla!
06-12-2017 02:29 , playdevil Tarafından Yüklendi.
Kaynaklar: 43 / İndirilen: 0 / Boyut: 1.37 GB / Tamamlandı: 208
Torrenti İndir  Torrenti Şikayet Et Torrent Tanımı Tanıtım Videosu
IMDB Puanı: 4.4 4.4/10 Kategori: Komedi
Kategori: Yerli Filmler > 720p
http://www.imdb.com/title/tt7588160/

Ketenpere 2017 720p WEBRip x264 AC3 TORK





AÇIKLAMA

Vizyon tarihi: 3 Kasım 2017 (1s 44dk)

Yönetmen: Kamil Çetin

Oyuncular: Şafak Sezer, Hakan Ural, Mehmet Esen

Tür: Komedi

Ülke: Türkiye

Kalender, bir akrabasının cast şirketinde çalışan ve arada dizilerde, filmlerde ufak roller alan bir figürandır. Uzatmalı sevgilisi İmge ile evlenme hayalleri kuran Kalender, akrabasının adının karıştığı bir mali suçu üzerine alınca cezaevine girer. Cezaevinde tanıştığı Vefa abi isimli bir mahkum, kısa sürede Kalender'i çok sever ve onu himayesine alır. Cezasını tamamlayan Kalender, cezaevinden çıkar ve eski yaşamına geri döner. Vefa'nın dışarıdaki adamları ona dışarıda da yardım ederler. Bir süre sonra Vefa da cezaevinden çıkar. Kalender, Vefa'nın yanına gider ve ona kendi cast şirketini kurmak ve film çekmek hayalinden bahseder. Vefa çok sevdiği Kalender'e yardım etmeye ve ona bir film çektirmeye karar verir.



Genişlet Kod:
Format : Matroska
Format version : Version 4 / Version 2
File size : 1.37 GiB
Duration : 1 h 43 min
Overall bit rate : 1 886 kb/s
Encoded date : UTC 2017-12-05 03:54:15
Writing application : mkvmerge v6.1.0 ('Old Devil') built on Mar 2 2013 14:32:37
Writing library : libebml v1.3.0 + libmatroska v1.4.0

Video
ID : 1
Format : AVC
Format/Info : Advanced Video Codec
Format profile : High@L3.1
Format settings : CABAC / 4 Ref Frames
Format settings, CABAC : Yes
Format settings, ReFrames : 4 frames
Codec ID : V_MPEG4/ISO/AVC
Duration : 1 h 43 min
Bit rate : 1 500 kb/s
Width : 1 256 pixels
Height : 688 pixels
Display aspect ratio : 1.85:1
Frame rate mode : Constant
Frame rate : 29.970 (30000/1001) FPS
Color space : YUV
Chroma subsampling : 4:2:0
Bit depth : 8 bits
Scan type : Progressive
Bits/(Pixel*Frame) : 0.058
Stream size : 1.06 GiB (78%)
Writing library : x264 core 152 r2851 ba24899

Default : Yes
Forced : No


Audio
ID : 2
Format : AC-3
Format/Info : Audio Coding 3
Codec ID : A_AC3
Duration : 1 h 43 min
Bit rate mode : Constant
Bit rate : 384 kb/s
Channel(s) : 2 channels
Channel positions : Front: L R
Sampling rate : 44.1 kHz
Frame rate : 28.711 FPS (1536 SPF)
Bit depth : 16 bits
Compression mode : Lossy
Stream size : 286 MiB (20%)
Service kind : Complete Main
Default : Yes
Forced : No





husen, robertocarlos58, mhmt42 ve diger 32 kisi bunu begendi.

Ketenpere 2017 720p WEBRip x264 AC3 TORK





AÇIKLAMA

Vizyon tarihi: 3 Kasım 2017 (1s 44dk)

Yönetmen: Kamil Çetin

Oyuncular: Şafak Sezer, Hakan Ural, Mehmet Esen

Tür: Komedi

Ülke: Türkiye

Kalender, bir akrabasının cast şirketinde çalışan ve arada dizilerde, filmlerde ufak roller alan bir figürandır. Uzatmalı sevgilisi İmge ile evlenme hayalleri kuran Kalender, akrabasının adının karıştığı bir mali suçu üzerine alınca cezaevine girer. Cezaevinde tanıştığı Vefa abi isimli bir mahkum, kısa sürede Kalender'i çok sever ve onu himayesine alır. Cezasını tamamlayan Kalender, cezaevinden çıkar ve eski yaşamına geri döner. Vefa'nın dışarıdaki adamları ona dışarıda da yardım ederler. Bir süre sonra Vefa da cezaevinden çıkar. Kalender, Vefa'nın yanına gider ve ona kendi cast şirketini kurmak ve film çekmek hayalinden bahseder. Vefa çok sevdiği Kalender'e yardım etmeye ve ona bir film çektirmeye karar verir.



Genişlet Kod:
Format : Matroska
Format version : Version 4 / Version 2
File size : 1.37 GiB
Duration : 1 h 43 min
Overall bit rate : 1 886 kb/s
Encoded date : UTC 2017-12-05 03:54:15
Writing application : mkvmerge v6.1.0 ('Old Devil') built on Mar 2 2013 14:32:37
Writing library : libebml v1.3.0 + libmatroska v1.4.0

Video
ID : 1
Format : AVC
Format/Info : Advanced Video Codec
Format profile : High@L3.1
Format settings : CABAC / 4 Ref Frames
Format settings, CABAC : Yes
Format settings, ReFrames : 4 frames
Codec ID : V_MPEG4/ISO/AVC
Duration : 1 h 43 min
Bit rate : 1 500 kb/s
Width : 1 256 pixels
Height : 688 pixels
Display aspect ratio : 1.85:1
Frame rate mode : Constant
Frame rate : 29.970 (30000/1001) FPS
Color space : YUV
Chroma subsampling : 4:2:0
Bit depth : 8 bits
Scan type : Progressive
Bits/(Pixel*Frame) : 0.058
Stream size : 1.06 GiB (78%)
Writing library : x264 core 152 r2851 ba24899

Default : Yes
Forced : No


Audio
ID : 2
Format : AC-3
Format/Info : Audio Coding 3
Codec ID : A_AC3
Duration : 1 h 43 min
Bit rate mode : Constant
Bit rate : 384 kb/s
Channel(s) : 2 channels
Channel positions : Front: L R
Sampling rate : 44.1 kHz
Frame rate : 28.711 FPS (1536 SPF)
Bit depth : 16 bits
Compression mode : Lossy
Stream size : 286 MiB (20%)
Service kind : Complete Main
Default : Yes
Forced : No





Teşekkürler
kanuni82 06-12-2017 19:35
sanalcolic, husen ve Eminn Bunu Beğendi.
sansürlümü?
deryadu 06-12-2017 22:03
sanalcolic, husen ve Eminn Bunu Beğendi.
sansürlü mü izleyen biri yazabilir mi?
FikirTepeli 06-12-2017 22:37
sanalcolic, husen ve Eminn Bunu Beğendi.
sansürlü
playdevil 06-12-2017 23:39
Teşekkürler
FikirTepeli 07-12-2017 22:39
sanalcolic, husen ve Eminn Bunu Beğendi.
IMDB Yenile
Ketenpere (2017)
108 Dakika - Comedy
IMDB Puanı: 4.4 4.4/10 ( oy)
Yönetmen(ler): Kamil Cetin
Yazar(lar): Safak Sezer
Yıldızlar: Cenk Acarlar | Afrikali Ali | Asli Altaylar | See full cast & crew
Kadro: Cenk Acarlar | Asli Altaylar | Mustafa Aydin | Volkan Basaran | Kemal Erek | Mehmet Esen | Ömer Kurt | Ümit Okur
Hiçbir Şey Bulunamadı.

web counter