Bu Sunum 0.5 Oranında Seed Edilmesi Mecburdur.
Askin Cekimi - Their Finest 2016 1080p BluRay x264 DUAL TR-ENG TORK

Genişletmek için Tıkla!
06-12-2017 02:02 , playdevil Tarafından Yüklendi.
Kaynaklar: 6 / İndirilen: 0 / Boyut: 1.92 GB / Tamamlandı: 15
Torrenti İndir  Torrenti Şikayet Et Torrent Tanımı Tanıtım Videosu
IMDB Puanı: 6.8 6.8/10 Kategori: Drama | Komedi | Romantik
Kategori: Yabancı Filmler > 1080p
http://www.imdb.com/title/tt1661275/

Askin Cekimi - Their Finest 2016 1080p BluRay x264 DUAL TR-ENG TORK





AÇIKLAMA

Vizyon tarihi: 19 Mayıs 2017 (1s 58dk)

Yönetmen: Lone Scherfig

Oyuncular: Gemma Arterton, Sam Claflin, Bill Nighy

Tür: Dram, Komedi, Romantik

Ülke: İngiltere

2. Dünya Savaşı esnasında ABD ve İngiltere İstihbarat Bakanlıkları, millete moral vermek amacıyla Dunkirk Tahliyesi'nden kurtarılan askerlerin öykülerini anlatan bir film çekmektedirler. Sekreterlik pozisyonuna başvurduğunu düşünen Catrin ise işe alınınca birden kendini bu filmin senaryo ekibinde bulur. Catrin, senaryo ekibinin başındaki Tom'un sayesinde savaşın tüm zorluklarına ve kötülüklerine rağmen içindeki umudu ve sevgiyi keşfedecektir.

One Day ve An Education filmleriyle tanınan Lone Scherfig'in yönettiği filmin başrollerinde Gemma Arterton, Sam Claflin, Bill Nighy ve Jack Huston yer alıyor. Filmin senaryosunu ise Lissa Evans'ın romanından Gaby Chiappe uyarladı.



Genişlet Kod:
Format : Matroska
Format version : Version 4 / Version 2
File size : 1.92 GiB
Duration : 1 h 56 min
Overall bit rate : 2 356 kb/s
Encoded date : UTC 2017-12-05 23:12:54
Writing application : mkvmerge v8.5.1 ('Where you lead I will follow') 32bit
Writing library : libebml v1.3.3 + libmatroska v1.4.4

Video
ID : 1
Format : AVC
Format/Info : Advanced Video Codec
Format profile : High@L4.1
Format settings : CABAC / 4 Ref Frames
Format settings, CABAC : Yes
Format settings, RefFrames : 4 frames
Codec ID : V_MPEG4/ISO/AVC
Duration : 1 h 56 min
Bit rate : 2 050 kb/s
Width : 1 920 pixels
Height : 800 pixels
Display aspect ratio : 2.40:1
Frame rate mode : Constant
Frame rate : 23.976 FPS
Color space : YUV
Chroma subsampling : 4:2:0
Bit depth : 8 bits
Scan type : Progressive
Bits/(Pixel*Frame) : 0.056
Stream size : 1.67 GiB (87%)
Writing library : x264 core 148

Default : Yes
Forced : No

Audio #1
ID : 2
Format : AC-3
Format/Info : Audio Coding 3
Format settings, Endianness : Big
Codec ID : A_AC3
Duration : 1 h 56 min
Bit rate mode : Constant
Bit rate : 192 kb/s
Channel(s) : 2 channels
Channel positions : Front: L R
Sampling rate : 48.0 kHz
Frame rate : 31.250 FPS (1536 SPF)
Bit depth : 16 bits
Compression mode : Lossy
Stream size : 161 MiB (8%)
Title : TOrrent tuRK
Language : Turkish
Service kind : Complete Main
Default : Yes
Forced : No

Audio #2
ID : 3
Format : AAC
Format/Info : Advanced Audio Codec
Format profile : LC
Codec ID : A_AAC-2
Duration : 1 h 56 min
Bit rate : 112 kb/s
Channel(s) : 2 channels
Channel positions : Front: L R
Sampling rate : 48.0 kHz
Frame rate : 46.875 FPS (1024 SPF)
Compression mode : Lossy
Stream size : 93.9 MiB (5%)
Title : TOrrent tuRK
Language : English
Default : No
Forced : No




husen, receppp111, Eminn ve diger 5 kisi bunu begendi.

Askin Cekimi - Their Finest 2016 1080p BluRay x264 DUAL TR-ENG TORK





AÇIKLAMA

Vizyon tarihi: 19 Mayıs 2017 (1s 58dk)

Yönetmen: Lone Scherfig

Oyuncular: Gemma Arterton, Sam Claflin, Bill Nighy

Tür: Dram, Komedi, Romantik

Ülke: İngiltere

2. Dünya Savaşı esnasında ABD ve İngiltere İstihbarat Bakanlıkları, millete moral vermek amacıyla Dunkirk Tahliyesi'nden kurtarılan askerlerin öykülerini anlatan bir film çekmektedirler. Sekreterlik pozisyonuna başvurduğunu düşünen Catrin ise işe alınınca birden kendini bu filmin senaryo ekibinde bulur. Catrin, senaryo ekibinin başındaki Tom'un sayesinde savaşın tüm zorluklarına ve kötülüklerine rağmen içindeki umudu ve sevgiyi keşfedecektir.

One Day ve An Education filmleriyle tanınan Lone Scherfig'in yönettiği filmin başrollerinde Gemma Arterton, Sam Claflin, Bill Nighy ve Jack Huston yer alıyor. Filmin senaryosunu ise Lissa Evans'ın romanından Gaby Chiappe uyarladı.



Genişlet Kod:
Format : Matroska
Format version : Version 4 / Version 2
File size : 1.92 GiB
Duration : 1 h 56 min
Overall bit rate : 2 356 kb/s
Encoded date : UTC 2017-12-05 23:12:54
Writing application : mkvmerge v8.5.1 ('Where you lead I will follow') 32bit
Writing library : libebml v1.3.3 + libmatroska v1.4.4

Video
ID : 1
Format : AVC
Format/Info : Advanced Video Codec
Format profile : High@L4.1
Format settings : CABAC / 4 Ref Frames
Format settings, CABAC : Yes
Format settings, RefFrames : 4 frames
Codec ID : V_MPEG4/ISO/AVC
Duration : 1 h 56 min
Bit rate : 2 050 kb/s
Width : 1 920 pixels
Height : 800 pixels
Display aspect ratio : 2.40:1
Frame rate mode : Constant
Frame rate : 23.976 FPS
Color space : YUV
Chroma subsampling : 4:2:0
Bit depth : 8 bits
Scan type : Progressive
Bits/(Pixel*Frame) : 0.056
Stream size : 1.67 GiB (87%)
Writing library : x264 core 148

Default : Yes
Forced : No

Audio #1
ID : 2
Format : AC-3
Format/Info : Audio Coding 3
Format settings, Endianness : Big
Codec ID : A_AC3
Duration : 1 h 56 min
Bit rate mode : Constant
Bit rate : 192 kb/s
Channel(s) : 2 channels
Channel positions : Front: L R
Sampling rate : 48.0 kHz
Frame rate : 31.250 FPS (1536 SPF)
Bit depth : 16 bits
Compression mode : Lossy
Stream size : 161 MiB (8%)
Title : TOrrent tuRK
Language : Turkish
Service kind : Complete Main
Default : Yes
Forced : No

Audio #2
ID : 3
Format : AAC
Format/Info : Advanced Audio Codec
Format profile : LC
Codec ID : A_AAC-2
Duration : 1 h 56 min
Bit rate : 112 kb/s
Channel(s) : 2 channels
Channel positions : Front: L R
Sampling rate : 48.0 kHz
Frame rate : 46.875 FPS (1024 SPF)
Compression mode : Lossy
Stream size : 93.9 MiB (5%)
Title : TOrrent tuRK
Language : English
Default : No
Forced : No




Henüz yorum yapılmamış.
IMDB Yenile
Their Finest (2016)
117 Dakika - Comedy | Drama | Romance | War
IMDB Puanı: 6.8 6.8/10 ( oy)
Yönetmen(ler): Lone Scherfig
Yazar(lar): Gaby Chiappe | Lissa Evans
Yıldızlar: Gemma Arterton | Sam Claflin | Bill Nighy | See full cast & crew
Kadro: Gemma Arterton | Sam Claflin | Bill Nighy | Jack Huston | Rachael Stirling | Richard E. Grant | Henry Goodman | Jake Lacy | Jeremy Irons | Eddie Marsan | Helen McCrory | Claudia Jessie
Hiçbir Şey Bulunamadı.

web counter