Iron Fist 1 Blm Kar Cokmesi HD

Genişletmek için Tıkla!
05-12-2017 23:04 , TheMusti Tarafından Yüklendi.
Kaynaklar: 3 / İndirilen: 0 / Boyut: 1.28 GB / Tamamlandı: 10
Torrenti İndir  Torrenti Şikayet Et Torrent Tanımı
Kategori: Aksiyon
Kategori: TV Kayıtları > Yabancı / Dizi

İron Fist 1.Sezon 1.Bölüm HD - Kar Çökmesi


15 yıl önce öldüğü sanılan Danny Rand, aile şirketini Ward ve Joy Meachum'dan almak için New York'a döner.





Genişlet Kod:
Format : dash
Codec ID : dash (iso6/mp41)
File size : 1.28 GiB
Duration : 57 min 1 s
Overall bit rate : 3 216 kb/s
Encoded date : UTC 2017-12-02 23:13:05
Tagged date : UTC 2017-12-02 23:13:05
Video
ID : 2
Format : AVC
Format/Info : Advanced Video Codec
Format profile : Main@L3.1
Format settings : CABAC / 2 Ref Frames
Format settings, CABAC : Yes
Format settings, ReFrames : 2 frames
Format settings, GOP : M=1, N=12
Codec ID : avc1
Codec ID/Info : Advanced Video Coding
Duration : 57 min 1 s
Bit rate : 3 117 kb/s
Width : 1 280 pixels
Height : 720 pixels
Display aspect ratio : 16:9
Frame rate mode : Constant
Frame rate : 23.976 (23976/1000) FPS
Color space : YUV
Chroma subsampling : 4:2:0
Bit depth : 8 bits
Scan type : Progressive
Bits/(Pixel*Frame) : 0.141
Stream size : 1.24 GiB (97%)
Encoded date : UTC 2017-12-02 23:13:05
Tagged date : UTC 2017-12-02 23:13:05
Audio
ID : 1
Format : AAC
Format/Info : Advanced Audio Codec
Format profile : HE-AAC / LC
Format settings : Implicit
Codec ID : mp4a-40-2
Duration : 57 min 1 s
Bit rate : 93.0 kb/s
Channel(s) : 2 channels
Channel positions : Front: L R
Sampling rate : 48.0 kHz / 24.0 kHz
Frame rate : 23.438 FPS (1024 SPF)
Compression mode : Lossy
Stream size : 37.9 MiB (3%)
Encoded date : UTC 2017-12-02 23:13:05
Tagged date : UTC 2017-12-02 23:13:05
favorite0055, receppp111, demircan67 ve diger 4 kisi bunu begendi.
Bu Torrentin Etiketleri: Iron fist 1 blm kar cokmesi hd
İron Fist 1.Sezon 1.Bölüm HD - Kar Çökmesi


15 yıl önce öldüğü sanılan Danny Rand, aile şirketini Ward ve Joy Meachum'dan almak için New York'a döner.





Genişlet Kod:
Format : dash
Codec ID : dash (iso6/mp41)
File size : 1.28 GiB
Duration : 57 min 1 s
Overall bit rate : 3 216 kb/s
Encoded date : UTC 2017-12-02 23:13:05
Tagged date : UTC 2017-12-02 23:13:05
Video
ID : 2
Format : AVC
Format/Info : Advanced Video Codec
Format profile : Main@L3.1
Format settings : CABAC / 2 Ref Frames
Format settings, CABAC : Yes
Format settings, ReFrames : 2 frames
Format settings, GOP : M=1, N=12
Codec ID : avc1
Codec ID/Info : Advanced Video Coding
Duration : 57 min 1 s
Bit rate : 3 117 kb/s
Width : 1 280 pixels
Height : 720 pixels
Display aspect ratio : 16:9
Frame rate mode : Constant
Frame rate : 23.976 (23976/1000) FPS
Color space : YUV
Chroma subsampling : 4:2:0
Bit depth : 8 bits
Scan type : Progressive
Bits/(Pixel*Frame) : 0.141
Stream size : 1.24 GiB (97%)
Encoded date : UTC 2017-12-02 23:13:05
Tagged date : UTC 2017-12-02 23:13:05
Audio
ID : 1
Format : AAC
Format/Info : Advanced Audio Codec
Format profile : HE-AAC / LC
Format settings : Implicit
Codec ID : mp4a-40-2
Duration : 57 min 1 s
Bit rate : 93.0 kb/s
Channel(s) : 2 channels
Channel positions : Front: L R
Sampling rate : 48.0 kHz / 24.0 kHz
Frame rate : 23.438 FPS (1024 SPF)
Compression mode : Lossy
Stream size : 37.9 MiB (3%)
Encoded date : UTC 2017-12-02 23:13:05
Tagged date : UTC 2017-12-02 23:13:05
Teşekkürler
kanuni82 06-12-2017 19:39
hayatisahin Bunu Beğendi.
Hiçbir Şey Bulunamadı.

web counter