Bu Sunum 0.5 Oranında Seed Edilmesi Mecburdur.
Eskiya Dunyaya Hukumdar Olmaz BL 83 HDTvRip 720p AC3 by TheWelleTy TORK

Genişletmek için Tıkla!
05-12-2017 22:49 , TheWelleTy Tarafından Yüklendi.
Kaynaklar: 37 / İndirilen: 0 / Boyut: 960.99 MB / Tamamlandı: 159
Torrenti İndir  Torrenti Şikayet Et Torrent Tanımı Tanıtım Videosu
IMDB Puanı: 7.2 7.2/10 Kategori: Aksiyon | Suç
Kategori: TV Kayıtları > Yerli / Dizi
http://www.imdb.com/title/tt5175270/

Eskiya Dunyaya Hukumdar Olmaz BL 83 HDTvRip 720p AC3 by TheWelleTy TORK





Genişlet Kod:
General
Unique ID : 229085416621263863891126735981590701284 (0xAC583F120F7E972798D5AF2E706564E4)
Complete name : D:\TORK\Eskiya.Dunyaya.Hukumdar.Olmaz.BL.83.HDTvRip.720p.AC3.by.TheWelleTy.TORK.mkv
Format : Matroska
Format version : Version 2
File size : 961 MiB
Duration : 1 h 59 min
Overall bit rate : 1 128 kb/s
Encoded date : UTC 2017-12-05 20:45:15
Writing application : mkvmerge v3.3.0 ('Language') built on Mar 24 2010 14:59:24
Writing library : libebml v0.8.0 + libmatroska v0.9.0
Video
ID : 1
Format : AVC
Format/Info : Advanced Video Codec
Format profile : High@L3.1
Format settings, CABAC : Yes
Format settings, RefFrames : 4 frames
Codec ID : V_MPEG4/ISO/AVC
Duration : 1 h 59 min
Bit rate : 998 kb/s
Width : 1 280 pixels
Height : 720 pixels
Display aspect ratio : 16:9
Frame rate mode : Constant
Frame rate : 25.000 FPS
Color space : YUV
Chroma subsampling : 4:2:0
Bit depth : 8 bits
Scan type : Progressive
Bits/(Pixel*Frame) : 0.043
Stream size : 833 MiB (87%)
Writing library : x264 core 133 r2334 a3ac64b
Encoding settings : cabac=1 / ref=3 / deblock=1:-1:-1 / analyse=0x3:0x113 / me=hex / subme=7 / psy=1 / psy_rd=1.00:0.15 / mixed_ref=1 / me_range=16 / chroma_me=1 / trellis=1 / 8x8dct=1 / cqm=0 / deadzone=21,11 / fast_pskip=1 / chroma_qp_offset=-3 / threads=18 / lookahead_threads=3 / sliced_threads=0 / nr=0 / decimate=1 / interlaced=0 / bluray_compat=0 / constrained_intra=0 / bframes=3 / b_pyramid=2 / b_adapt=1 / b_bias=0 / direct=1 / weightb=1 / open_gop=0 / weightp=2 / keyint=250 / keyint_min=25 / scenecut=40 / intra_refresh=0 / rc_lookahead=40 / rc=abr / mbtree=1 / bitrate=998 / ratetol=1.0 / qcomp=0.60 / qpmin=0 / qpmax=69 / qpstep=4 / ip_ratio=1.40 / aq=1:1.00
Default : No
Forced : No
Audio
ID : 2
Format : AC-3
Format/Info : Audio Coding 3
Format settings, Endianness : Big
Codec ID : A_AC3
Duration : 1 h 59 min
Bit rate mode : Constant
Bit rate : 128 kb/s
Channel(s) : 2 channels
Channel positions : Front: L R
Sampling rate : 48.0 kHz
Frame rate : 31.250 FPS (1536 SPF)
Bit depth : 16 bits
Compression mode : Lossy
Stream size : 109 MiB (11%)
Language : English
Service kind : Complete Main
Default : No
Forced : No




cefrenka, ashara, cyberk ve diger 27 kisi bunu begendi.

Eskiya Dunyaya Hukumdar Olmaz BL 83 HDTvRip 720p AC3 by TheWelleTy TORK





Genişlet Kod:
General
Unique ID : 229085416621263863891126735981590701284 (0xAC583F120F7E972798D5AF2E706564E4)
Complete name : D:\TORK\Eskiya.Dunyaya.Hukumdar.Olmaz.BL.83.HDTvRip.720p.AC3.by.TheWelleTy.TORK.mkv
Format : Matroska
Format version : Version 2
File size : 961 MiB
Duration : 1 h 59 min
Overall bit rate : 1 128 kb/s
Encoded date : UTC 2017-12-05 20:45:15
Writing application : mkvmerge v3.3.0 ('Language') built on Mar 24 2010 14:59:24
Writing library : libebml v0.8.0 + libmatroska v0.9.0
Video
ID : 1
Format : AVC
Format/Info : Advanced Video Codec
Format profile : High@L3.1
Format settings, CABAC : Yes
Format settings, RefFrames : 4 frames
Codec ID : V_MPEG4/ISO/AVC
Duration : 1 h 59 min
Bit rate : 998 kb/s
Width : 1 280 pixels
Height : 720 pixels
Display aspect ratio : 16:9
Frame rate mode : Constant
Frame rate : 25.000 FPS
Color space : YUV
Chroma subsampling : 4:2:0
Bit depth : 8 bits
Scan type : Progressive
Bits/(Pixel*Frame) : 0.043
Stream size : 833 MiB (87%)
Writing library : x264 core 133 r2334 a3ac64b
Encoding settings : cabac=1 / ref=3 / deblock=1:-1:-1 / analyse=0x3:0x113 / me=hex / subme=7 / psy=1 / psy_rd=1.00:0.15 / mixed_ref=1 / me_range=16 / chroma_me=1 / trellis=1 / 8x8dct=1 / cqm=0 / deadzone=21,11 / fast_pskip=1 / chroma_qp_offset=-3 / threads=18 / lookahead_threads=3 / sliced_threads=0 / nr=0 / decimate=1 / interlaced=0 / bluray_compat=0 / constrained_intra=0 / bframes=3 / b_pyramid=2 / b_adapt=1 / b_bias=0 / direct=1 / weightb=1 / open_gop=0 / weightp=2 / keyint=250 / keyint_min=25 / scenecut=40 / intra_refresh=0 / rc_lookahead=40 / rc=abr / mbtree=1 / bitrate=998 / ratetol=1.0 / qcomp=0.60 / qpmin=0 / qpmax=69 / qpstep=4 / ip_ratio=1.40 / aq=1:1.00
Default : No
Forced : No
Audio
ID : 2
Format : AC-3
Format/Info : Audio Coding 3
Format settings, Endianness : Big
Codec ID : A_AC3
Duration : 1 h 59 min
Bit rate mode : Constant
Bit rate : 128 kb/s
Channel(s) : 2 channels
Channel positions : Front: L R
Sampling rate : 48.0 kHz
Frame rate : 31.250 FPS (1536 SPF)
Bit depth : 16 bits
Compression mode : Lossy
Stream size : 109 MiB (11%)
Language : English
Service kind : Complete Main
Default : No
Forced : No




teşekkürler
ddokur 07-12-2017 12:39
Eminn Bunu Beğendi.
IMDB Yenile
Eskiya Dünyaya Hükümdar Olmaz (2015)
Dakika - Action | Crime
IMDB Puanı: 7.2 7.2/10 ( oy)
Yönetmen(ler):
Yazar(lar):
Yıldızlar: Deniz Çakir | Ece Hakim | Oktay Kaynarca | See full cast & crew
Kadro: Deniz Çakir | Ece Hakim | Oktay Kaynarca | Ozan Akbaba | Müjde Uzman
Hiçbir Şey Bulunamadı.

web counter