Bu Sunum 0.5 Oranında Seed Edilmesi Mecburdur.
NFL Miami Dolphins vs New England Patriopts (26.11.2017) 720p HDTVRip x264 ENG AC3 TORK

Genişletmek için Tıkla!
05-12-2017 17:41 , playdevil Tarafından Yüklendi.
Kaynaklar: 2 / İndirilen: 0 / Boyut: 1.58 GB / Tamamlandı: 1
Torrenti İndir  Torrenti Şikayet Et Torrent Tanımı
Kategori: Spor
Kategori: TV Kayıtları > Diğer

NFL Miami Dolphins vs New England Patriopts (26.11.2017) 720p HDTVRip x264 ENG AC3 TORK





Genişlet Kod:
Format : Matroska
Format version : Version 4 / Version 2
File size : 1.58 GiB
Duration : 2 h 13 min
Overall bit rate : 1 694 kb/s
Encoded date : UTC 2017-12-05 14:04:37
Writing application : mkvmerge v8.5.1 ('Where you lead I will follow') 32bit
Writing library : libebml v1.3.3 + libmatroska v1.4.4

Video
ID : 1
Format : AVC
Format/Info : Advanced Video Codec
Format profile : High@L3.1
Format settings : CABAC / 4 Ref Frames
Format settings, CABAC : Yes
Format settings, RefFrames : 4 frames
Codec ID : V_MPEG4/ISO/AVC
Duration : 2 h 13 min
Bit rate : 1 500 kb/s
Width : 1 280 pixels
Height : 720 pixels
Display aspect ratio : 16:9
Frame rate mode : Constant
Frame rate : 29.970 (30000/1001) FPS
Color space : YUV
Chroma subsampling : 4:2:0
Bit depth : 8 bits
Scan type : Progressive
Bits/(Pixel*Frame) : 0.054
Stream size : 1.40 GiB (89%)
Writing library : x264 core 152 r2851 ba24899

Default : Yes
Forced : No

Audio
ID : 2
Format : AC-3
Format/Info : Audio Coding 3
Format settings, Endianness : Big
Codec ID : A_AC3
Duration : 2 h 13 min
Bit rate mode : Constant
Bit rate : 192 kb/s
Channel(s) : 2 channels
Channel positions : Front: L R
Sampling rate : 48.0 kHz
Frame rate : 31.250 FPS (1536 SPF)
Bit depth : 16 bits
Compression mode : Lossy
Stream size : 184 MiB (11%)
Language : English
Service kind : Complete Main
Default : Yes
Forced : No





Eminn, demircan67, erhan046 ve diger 2 kisi bunu begendi.

NFL Miami Dolphins vs New England Patriopts (26.11.2017) 720p HDTVRip x264 ENG AC3 TORK





Genişlet Kod:
Format : Matroska
Format version : Version 4 / Version 2
File size : 1.58 GiB
Duration : 2 h 13 min
Overall bit rate : 1 694 kb/s
Encoded date : UTC 2017-12-05 14:04:37
Writing application : mkvmerge v8.5.1 ('Where you lead I will follow') 32bit
Writing library : libebml v1.3.3 + libmatroska v1.4.4

Video
ID : 1
Format : AVC
Format/Info : Advanced Video Codec
Format profile : High@L3.1
Format settings : CABAC / 4 Ref Frames
Format settings, CABAC : Yes
Format settings, RefFrames : 4 frames
Codec ID : V_MPEG4/ISO/AVC
Duration : 2 h 13 min
Bit rate : 1 500 kb/s
Width : 1 280 pixels
Height : 720 pixels
Display aspect ratio : 16:9
Frame rate mode : Constant
Frame rate : 29.970 (30000/1001) FPS
Color space : YUV
Chroma subsampling : 4:2:0
Bit depth : 8 bits
Scan type : Progressive
Bits/(Pixel*Frame) : 0.054
Stream size : 1.40 GiB (89%)
Writing library : x264 core 152 r2851 ba24899

Default : Yes
Forced : No

Audio
ID : 2
Format : AC-3
Format/Info : Audio Coding 3
Format settings, Endianness : Big
Codec ID : A_AC3
Duration : 2 h 13 min
Bit rate mode : Constant
Bit rate : 192 kb/s
Channel(s) : 2 channels
Channel positions : Front: L R
Sampling rate : 48.0 kHz
Frame rate : 31.250 FPS (1536 SPF)
Bit depth : 16 bits
Compression mode : Lossy
Stream size : 184 MiB (11%)
Language : English
Service kind : Complete Main
Default : Yes
Forced : No





Henüz yorum yapılmamış.
Hiçbir Şey Bulunamadı.

web counter