Bu Sunum 0.5 Oranında Seed Edilmesi Mecburdur.
Hak Edenler - The Worthy 2016 1080p NF WEBRip x264 DUAL TR-ENG TORK

Genişletmek için Tıkla!
05-12-2017 17:31 , playdevil Tarafından Yüklendi.
Kaynaklar: 4 / İndirilen: 0 / Boyut: 4.51 GB / Tamamlandı: 8
Torrenti İndir  Torrenti Şikayet Et Torrent Tanımı Tanıtım Videosu
IMDB Puanı: 5.5 5.5/10 Kategori: Gerilim
Kategori: Yabancı Filmler > BRRip-HDRip-DVDRip-WebDL
http://www.imdb.com/title/tt4943218/

Hak Edenler - The Worthy 2016 1080p NF WEBRip x264 DUAL TR-ENG TORK





AÇIKLAMA

Dünyadaki su kaynaklarının büyük çoğunluğunun kirletilmesinden dolayı, nadir bulunan temiz bir su kaynağının yakınına sığınan kişilerin. bu yeri kirletenlere karşı savunması gerekecektir.



Genişlet Kod:
Format : Matroska
Format version : Version 4 / Version 2
File size : 4.51 GiB
Duration : 1 h 39 min
Overall bit rate : 6 495 kb/s
Encoded date : UTC 2017-12-05 00:42:24
Writing application : mkvmerge v8.5.1 ('Where you lead I will follow') 32bit
Writing library : libebml v1.3.3 + libmatroska v1.4.4
Video
ID : 1
Format : AVC
Format/Info : Advanced Video Codec
Format profile : High@L4.1
Format settings : CABAC / 5 Ref Frames
Format settings, CABAC : Yes
Format settings, RefFrames : 5 frames
Codec ID : V_MPEG4/ISO/AVC
Duration : 1 h 39 min
Bit rate : 5 725 kb/s
Width : 1 920 pixels
Height : 804 pixels
Display aspect ratio : 2.40:1
Frame rate mode : Constant
Frame rate : 23.976 (24000/1001) FPS
Color space : YUV
Chroma subsampling : 4:2:0
Bit depth : 8 bits
Scan type : Progressive
Bits/(Pixel*Frame) : 0.155
Stream size : 3.98 GiB (88%)
Writing library : x264 core 148 r2744 b97ae06
Default : Yes
Forced : No
Audio #1
ID : 2
Format : AC-3
Format/Info : Audio Coding 3
Format settings, Endianness : Big
Codec ID : A_AC3
Duration : 1 h 39 min
Bit rate mode : Constant
Bit rate : 384 kb/s
Channel(s) : 6 channels
Channel positions : Front: L C R, Side: L R, LFE
Sampling rate : 48.0 kHz
Frame rate : 31.250 FPS (1536 SPF)
Bit depth : 16 bits
Compression mode : Lossy
Stream size : 273 MiB (6%)
Language : Turkish
Service kind : Complete Main
Default : Yes
Forced : No
Audio #2
ID : 3
Format : AC-3
Format/Info : Audio Coding 3
Format settings, Endianness : Big
Codec ID : A_AC3
Duration : 1 h 39 min
Bit rate mode : Constant
Bit rate : 384 kb/s
Channel(s) : 6 channels
Channel positions : Front: L C R, Side: L R, LFE
Sampling rate : 48.0 kHz
Frame rate : 31.250 FPS (1536 SPF)
Bit depth : 16 bits
Compression mode : Lossy
Stream size : 273 MiB (6%)
Language : English
Service kind : Complete Main
Default : No
Forced : No
Text
ID : 4
Format : UTF-8
Codec ID : S_TEXT/UTF8
Codec ID/Info : UTF-8 Plain Text
Duration : 1 h 38 min
Bit rate : 30 b/s
Count of elements : 726
Stream size : 22.1 KiB (0%)
Default : No
Forced : No




mesut03, ashara, Eminn ve diger 8 kisi bunu begendi.

Hak Edenler - The Worthy 2016 1080p NF WEBRip x264 DUAL TR-ENG TORK





AÇIKLAMA

Dünyadaki su kaynaklarının büyük çoğunluğunun kirletilmesinden dolayı, nadir bulunan temiz bir su kaynağının yakınına sığınan kişilerin. bu yeri kirletenlere karşı savunması gerekecektir.



Genişlet Kod:
Format : Matroska
Format version : Version 4 / Version 2
File size : 4.51 GiB
Duration : 1 h 39 min
Overall bit rate : 6 495 kb/s
Encoded date : UTC 2017-12-05 00:42:24
Writing application : mkvmerge v8.5.1 ('Where you lead I will follow') 32bit
Writing library : libebml v1.3.3 + libmatroska v1.4.4
Video
ID : 1
Format : AVC
Format/Info : Advanced Video Codec
Format profile : High@L4.1
Format settings : CABAC / 5 Ref Frames
Format settings, CABAC : Yes
Format settings, RefFrames : 5 frames
Codec ID : V_MPEG4/ISO/AVC
Duration : 1 h 39 min
Bit rate : 5 725 kb/s
Width : 1 920 pixels
Height : 804 pixels
Display aspect ratio : 2.40:1
Frame rate mode : Constant
Frame rate : 23.976 (24000/1001) FPS
Color space : YUV
Chroma subsampling : 4:2:0
Bit depth : 8 bits
Scan type : Progressive
Bits/(Pixel*Frame) : 0.155
Stream size : 3.98 GiB (88%)
Writing library : x264 core 148 r2744 b97ae06
Default : Yes
Forced : No
Audio #1
ID : 2
Format : AC-3
Format/Info : Audio Coding 3
Format settings, Endianness : Big
Codec ID : A_AC3
Duration : 1 h 39 min
Bit rate mode : Constant
Bit rate : 384 kb/s
Channel(s) : 6 channels
Channel positions : Front: L C R, Side: L R, LFE
Sampling rate : 48.0 kHz
Frame rate : 31.250 FPS (1536 SPF)
Bit depth : 16 bits
Compression mode : Lossy
Stream size : 273 MiB (6%)
Language : Turkish
Service kind : Complete Main
Default : Yes
Forced : No
Audio #2
ID : 3
Format : AC-3
Format/Info : Audio Coding 3
Format settings, Endianness : Big
Codec ID : A_AC3
Duration : 1 h 39 min
Bit rate mode : Constant
Bit rate : 384 kb/s
Channel(s) : 6 channels
Channel positions : Front: L C R, Side: L R, LFE
Sampling rate : 48.0 kHz
Frame rate : 31.250 FPS (1536 SPF)
Bit depth : 16 bits
Compression mode : Lossy
Stream size : 273 MiB (6%)
Language : English
Service kind : Complete Main
Default : No
Forced : No
Text
ID : 4
Format : UTF-8
Codec ID : S_TEXT/UTF8
Codec ID/Info : UTF-8 Plain Text
Duration : 1 h 38 min
Bit rate : 30 b/s
Count of elements : 726
Stream size : 22.1 KiB (0%)
Default : No
Forced : No




Henüz yorum yapılmamış.
IMDB Yenile
The Worthy (2016)
99 Dakika - Thriller
IMDB Puanı: 5.5 5.5/10 ( oy)
Yönetmen(ler): Ali F. Mostafa
Yazar(lar): Vikram Weet
Yıldızlar: Ali Suliman | Maisa Abd Elhadi | Mahmoud Al Atrash | See full cast & crew
Kadro: Ali Suliman | Mahmoud Al Atrash | Nabeel Ahmad Alkoni | Habib Ghuloom | Samer Ismail | Samer al Masri | Rakeen Saad
Hiçbir Şey Bulunamadı.

web counter