Bu Sunum 0.5 Oranında Seed Edilmesi Mecburdur.
Spark - Bir Uzay Macerasi 2016 720p BluRay x264 TRDUB TORK

Genişletmek için Tıkla!
05-12-2017 17:31 , playdevil Tarafından Yüklendi.
Kaynaklar: 6 / İndirilen: 0 / Boyut: 1.08 GB / Tamamlandı: 36
Torrenti İndir  Torrenti Şikayet Et Torrent Tanımı Tanıtım Videosu
IMDB Puanı: 4.4 4.4/10 Kategori: Animasyon | Komedi | Macera
Kategori: Yabancı Filmler > 720p
http://www.imdb.com/title/tt3228088/

Spark - Bir Uzay Macerasi 2016 720p BluRay x264 TRDUB TORK





AÇIKLAMA

Vizyon tarihi: 7 Temmuz 2017 (1s 30dk)

Yönetmen: Aaron Woodley

Oyuncular: Jessica Biel, Hilary Swank, Susan Sarandon

Tür: Animasyon, Macera

Ülke: ABD

Güç delisi general Zhong 13 yıl önce Bana gezegeninin kontrolünü ele geçirmiştir. O günden beri gezegenin yönetimini elinde tutan kötü kalpli general bütün gezegeni lime lime etmekte ve gezegenin sakinlerini ağır bir boyunduruk altında yaşatmaktadır. Gezegende 3 arkadaş olan hareketli maymun Spark, hevesli tilki Vix ve teknoloji meraklısı domuz Chunk da yaşamaktadır. Üçlü bir şekilde generalin planının dünyayı ele geçirmek olduğunu öğrenir. General, kara delikler yaratma gücüne sahip olan Kraken'in peşindedir ve eğer onu ele geçirirse sonsuz güç onun olacaktır. Onu durdurmak için harekete geçen ekip bu yolculukları sırasında uzayın pek çok gizli noktasını keşfedecek ve kendi köklerinin nereden geldiğini de bulacaktır.



Genişlet Kod:
Format : Matroska
Format version : Version 4 / Version 2
File size : 1.08 GiB
Duration : 1 h 31 min
Overall bit rate : 1 694 kb/s
Movie name : playdevil iyi seyirler diler
Encoded date : UTC 2017-12-05 03:56:21
Writing application : mkvmerge v8.5.1 ('Where you lead I will follow') 32bit
Writing library : libebml v1.3.3 + libmatroska v1.4.4
Attachments : TORK.png

Video
ID : 1
Format : AVC
Format/Info : Advanced Video Codec
Format profile : High@L4.1
Format settings : CABAC / 4 Ref Frames
Format settings, CABAC : Yes
Format settings, RefFrames : 4 frames
Codec ID : V_MPEG4/ISO/AVC
Duration : 1 h 31 min
Bit rate : 1 500 kb/s
Width : 1 280 pixels
Height : 536 pixels
Display aspect ratio : 2.40:1
Frame rate mode : Constant
Frame rate : 23.976 (23976/1000) FPS
Color space : YUV
Chroma subsampling : 4:2:0
Bit depth : 8 bits
Scan type : Progressive
Bits/(Pixel*Frame) : 0.091
Stream size : 982 MiB (89%)
Writing library : x264 core 148 r2597M e86f3a1

Default : Yes
Forced : No

Audio
ID : 2
Format : AC-3
Format/Info : Audio Coding 3
Format settings, Endianness : Big
Codec ID : A_AC3
Duration : 1 h 31 min
Bit rate mode : Constant
Bit rate : 192 kb/s
Channel(s) : 2 channels
Channel positions : Front: L R
Sampling rate : 48.0 kHz
Frame rate : 31.250 FPS (1536 SPF)
Bit depth : 16 bits
Compression mode : Lossy
Stream size : 126 MiB (11%)
Title : TOrrent tuRK
Language : Turkish
Service kind : Complete Main
Default : Yes
Forced : No




karakartal3333, demircan67, erhan046 ve diger 4 kisi bunu begendi.

Spark - Bir Uzay Macerasi 2016 720p BluRay x264 TRDUB TORK





AÇIKLAMA

Vizyon tarihi: 7 Temmuz 2017 (1s 30dk)

Yönetmen: Aaron Woodley

Oyuncular: Jessica Biel, Hilary Swank, Susan Sarandon

Tür: Animasyon, Macera

Ülke: ABD

Güç delisi general Zhong 13 yıl önce Bana gezegeninin kontrolünü ele geçirmiştir. O günden beri gezegenin yönetimini elinde tutan kötü kalpli general bütün gezegeni lime lime etmekte ve gezegenin sakinlerini ağır bir boyunduruk altında yaşatmaktadır. Gezegende 3 arkadaş olan hareketli maymun Spark, hevesli tilki Vix ve teknoloji meraklısı domuz Chunk da yaşamaktadır. Üçlü bir şekilde generalin planının dünyayı ele geçirmek olduğunu öğrenir. General, kara delikler yaratma gücüne sahip olan Kraken'in peşindedir ve eğer onu ele geçirirse sonsuz güç onun olacaktır. Onu durdurmak için harekete geçen ekip bu yolculukları sırasında uzayın pek çok gizli noktasını keşfedecek ve kendi köklerinin nereden geldiğini de bulacaktır.



Genişlet Kod:
Format : Matroska
Format version : Version 4 / Version 2
File size : 1.08 GiB
Duration : 1 h 31 min
Overall bit rate : 1 694 kb/s
Movie name : playdevil iyi seyirler diler
Encoded date : UTC 2017-12-05 03:56:21
Writing application : mkvmerge v8.5.1 ('Where you lead I will follow') 32bit
Writing library : libebml v1.3.3 + libmatroska v1.4.4
Attachments : TORK.png

Video
ID : 1
Format : AVC
Format/Info : Advanced Video Codec
Format profile : High@L4.1
Format settings : CABAC / 4 Ref Frames
Format settings, CABAC : Yes
Format settings, RefFrames : 4 frames
Codec ID : V_MPEG4/ISO/AVC
Duration : 1 h 31 min
Bit rate : 1 500 kb/s
Width : 1 280 pixels
Height : 536 pixels
Display aspect ratio : 2.40:1
Frame rate mode : Constant
Frame rate : 23.976 (23976/1000) FPS
Color space : YUV
Chroma subsampling : 4:2:0
Bit depth : 8 bits
Scan type : Progressive
Bits/(Pixel*Frame) : 0.091
Stream size : 982 MiB (89%)
Writing library : x264 core 148 r2597M e86f3a1

Default : Yes
Forced : No

Audio
ID : 2
Format : AC-3
Format/Info : Audio Coding 3
Format settings, Endianness : Big
Codec ID : A_AC3
Duration : 1 h 31 min
Bit rate mode : Constant
Bit rate : 192 kb/s
Channel(s) : 2 channels
Channel positions : Front: L R
Sampling rate : 48.0 kHz
Frame rate : 31.250 FPS (1536 SPF)
Bit depth : 16 bits
Compression mode : Lossy
Stream size : 126 MiB (11%)
Title : TOrrent tuRK
Language : Turkish
Service kind : Complete Main
Default : Yes
Forced : No




Teşekkürler
kanuni82 06-12-2017 19:37
IMDB Yenile
Spark: A Space Tail (2016)
91 Dakika - Animation | Adventure | Comedy | Family | Sci-Fi
IMDB Puanı: 4.4 4.4/10 ( oy)
Yönetmen(ler): Aaron Woodley
Yazar(lar): Doug Hadders | Robert Reece
Yıldızlar: Jace Norman | Jessica Biel | Rob deLeeuw | See full cast & crew
Kadro: Jace Norman | Jessica Biel | Rob deLeeuw | Susan Sarandon | A.C. Peterson | Athena Karkanis | Jason Deline | Patrick Stewart | Shannon Perreault | Ivan Sherry | Aaron Woodley
Hiçbir Şey Bulunamadı.

web counter