Bu Sunum 0.5 Oranında Seed Edilmesi Mecburdur.
Dolunay BL 22 HDTvRip 720p AC3 by TheWelleTy TORK

Genişletmek için Tıkla!
04-12-2017 22:30 , TheWelleTy Tarafından Yüklendi.
Kaynaklar: 6 / İndirilen: 0 / Boyut: 1.09 GB / Tamamlandı: 19
Torrenti İndir  Torrenti Şikayet Et Torrent Tanımı Tanıtım Videosu
IMDB Puanı: 7.5 7.5/10 Kategori: Romantik
Kategori: TV Kayıtları > Yerli / Dizi
http://www.imdb.com/title/tt7115498/

Dolunay BL 22 HDTvRip 720p AC3 by TheWelleTy TORK





Genişlet Kod:
General
Unique ID : 198717426454043735078270069429142732326 (0x957F958EA6D11F7AA45DD1AC2D96BE26)
Complete name : D:\DIZILER\Dolunay\Dolunay.BL.22.HDTvRip.720p.AC3.by.TheWelleTy.TORK.mkv
Format : Matroska
Format version : Version 2
File size : 1.09 GiB
Duration : 2h 17mn
Overall bit rate : 1 133 Kbps
Encoded date : UTC 2017-12-04 20:27:51
Writing application : mkvmerge v3.3.0 ('Language') built on Mar 24 2010 14:59:24
Writing library : libebml v0.8.0 + libmatroska v0.9.0
Video
ID : 1
Format : AVC
Format/Info : Advanced Video Codec
Format profile : High@L3.1
Format settings, CABAC : Yes
Format settings, ReFrames : 4 frames
Codec ID : V_MPEG4/ISO/AVC
Duration : 2h 17mn
Bit rate : 1 000 Kbps
Width : 1 280 pixels
Height : 720 pixels
Display aspect ratio : 16:9
Frame rate mode : Constant
Frame rate : 25.000 fps
Color space : YUV
Chroma subsampling : 4:2:0
Bit depth : 8 bits
Scan type : Progressive
Bits/(Pixel*Frame) : 0.043
Stream size : 968 MiB (87%)
Writing library : x264 core 128 r2216 198a7ea
Encoding settings : cabac=1 / ref=3 / deblock=1:-1:-1 / analyse=0x3:0x113 / me=hex / subme=7 / psy=1 / psy_rd=1.00:0.15 / mixed_ref=1 / me_range=16 / chroma_me=1 / trellis=1 / 8x8dct=1 / cqm=0 / deadzone=21,11 / fast_pskip=1 / chroma_qp_offset=-3 / threads=12 / lookahead_threads=2 / sliced_threads=0 / nr=0 / decimate=1 / interlaced=0 / bluray_compat=0 / constrained_intra=0 / bframes=3 / b_pyramid=2 / b_adapt=1 / b_bias=0 / direct=1 / weightb=1 / open_gop=0 / weightp=2 / keyint=250 / keyint_min=25 / scenecut=40 / intra_refresh=0 / rc_lookahead=40 / rc=abr / mbtree=1 / bitrate=1000 / ratetol=1.0 / qcomp=0.60 / qpmin=0 / qpmax=69 / qpstep=4 / ip_ratio=1.40 / aq=1:1.00
Default : No
Forced : No
Audio
ID : 2
Format : AC-3
Format/Info : Audio Coding 3
Mode extension : CM (complete main)
Format settings, Endianness : Big
Codec ID : A_AC3
Duration : 2h 17mn
Bit rate mode : Constant
Bit rate : 128 Kbps
Channel(s) : 2 channels
Channel positions : Front: L R
Sampling rate : 48.0 KHz
Compression mode : Lossy
Stream size : 126 MiB (11%)
Language : English
Default : No
Forced : No









demircan67, ashara, gece16 ve diger 10 kisi bunu begendi.

Dolunay BL 22 HDTvRip 720p AC3 by TheWelleTy TORK





Genişlet Kod:
General
Unique ID : 198717426454043735078270069429142732326 (0x957F958EA6D11F7AA45DD1AC2D96BE26)
Complete name : D:\DIZILER\Dolunay\Dolunay.BL.22.HDTvRip.720p.AC3.by.TheWelleTy.TORK.mkv
Format : Matroska
Format version : Version 2
File size : 1.09 GiB
Duration : 2h 17mn
Overall bit rate : 1 133 Kbps
Encoded date : UTC 2017-12-04 20:27:51
Writing application : mkvmerge v3.3.0 ('Language') built on Mar 24 2010 14:59:24
Writing library : libebml v0.8.0 + libmatroska v0.9.0
Video
ID : 1
Format : AVC
Format/Info : Advanced Video Codec
Format profile : High@L3.1
Format settings, CABAC : Yes
Format settings, ReFrames : 4 frames
Codec ID : V_MPEG4/ISO/AVC
Duration : 2h 17mn
Bit rate : 1 000 Kbps
Width : 1 280 pixels
Height : 720 pixels
Display aspect ratio : 16:9
Frame rate mode : Constant
Frame rate : 25.000 fps
Color space : YUV
Chroma subsampling : 4:2:0
Bit depth : 8 bits
Scan type : Progressive
Bits/(Pixel*Frame) : 0.043
Stream size : 968 MiB (87%)
Writing library : x264 core 128 r2216 198a7ea
Encoding settings : cabac=1 / ref=3 / deblock=1:-1:-1 / analyse=0x3:0x113 / me=hex / subme=7 / psy=1 / psy_rd=1.00:0.15 / mixed_ref=1 / me_range=16 / chroma_me=1 / trellis=1 / 8x8dct=1 / cqm=0 / deadzone=21,11 / fast_pskip=1 / chroma_qp_offset=-3 / threads=12 / lookahead_threads=2 / sliced_threads=0 / nr=0 / decimate=1 / interlaced=0 / bluray_compat=0 / constrained_intra=0 / bframes=3 / b_pyramid=2 / b_adapt=1 / b_bias=0 / direct=1 / weightb=1 / open_gop=0 / weightp=2 / keyint=250 / keyint_min=25 / scenecut=40 / intra_refresh=0 / rc_lookahead=40 / rc=abr / mbtree=1 / bitrate=1000 / ratetol=1.0 / qcomp=0.60 / qpmin=0 / qpmax=69 / qpstep=4 / ip_ratio=1.40 / aq=1:1.00
Default : No
Forced : No
Audio
ID : 2
Format : AC-3
Format/Info : Audio Coding 3
Mode extension : CM (complete main)
Format settings, Endianness : Big
Codec ID : A_AC3
Duration : 2h 17mn
Bit rate mode : Constant
Bit rate : 128 Kbps
Channel(s) : 2 channels
Channel positions : Front: L R
Sampling rate : 48.0 KHz
Compression mode : Lossy
Stream size : 126 MiB (11%)
Language : English
Default : No
Forced : No









Tesekkurler thumbsup
opToros 04-12-2017 22:31
IMDB Yenile
Dolunay (2017)
120 Dakika - Comedy | Romance
IMDB Puanı: 7.5 7.5/10 ( oy)
Yönetmen(ler):
Yazar(lar):
Yıldızlar: Özge Gürel | Can Yaman | Hakan Kurtas | See full cast & crew
Kadro: Özge Gürel | Can Yaman | Hakan Kurtas | Necip Memili | Öznur Serçeler | Ilayda Akdogan | Berk Yaygin | Balamir Emren | Aliona Bozbey | Alihan Türkdemir | Özlem Türay | Emre Kentmenoglu | Türkü Turan | Ayumi Takano | Gamze Aydogdu | Yesim Gül Aksar
Hiçbir Şey Bulunamadı.

web counter