Bu Sunum 0.5 Oranında Seed Edilmesi Mecburdur.
Game of Thrones S07E01 1080p WEB h264

Genişletmek için Tıkla!
17-07-2017 09:15 , TORKBOT Tarafından Yüklendi.
Kaynaklar: 7 / İndirilen: 0 / Boyut: 1.59 GB / Tamamlandı: 112
Torrenti İndir  Torrenti Şikayet Et Torrent Tanımı NFO Tanıtım Videosu
IMDB Puanı: 9.5 9.5/10 Kategori: Drama | Fantastik | Macera
Kategori: TV Kayıtları > Yabancı / Dizi
Anonim Yükleyicihttp://www.imdb.com/title/tt0944947/

Game of Thrones S07E01 1080p WEB h264

ALTYAZI İÇİN TIKLAYIN

Series Title: Game of Thrones
Total Seasons: 8
Rated: TV-MA
Year: 2011–
Release date: 17 Apr 2011
Genres: Adventure, Drama, Fantasy
IMDb ID: tt0944947
IMDb rating: 9.5 (1,113,297 votes)
Director: N/A
Writers: David Benioff, D.B. Weiss
Language: English
Cast: Peter Dinklage, Lena Headey, Emilia Clarke, Kit Harington
Dokuz asil aileler, Westeros'un efsanevi topraklarında kontrolü sağlamak için savaşıyorlar. Bu arada, unutulmuş binlerce yıl hareketsiz kaldıktan sonra cehennemden kurtulma mücadelesi verildi.
mmmismail, sevket8302, maske ve diger 19 kisi bunu begendi.
Bu Torrentin Etiketleri: Game of thrones s07e01 1080p web h264
Game of Thrones S07E01 1080p WEB h264

ALTYAZI İÇİN TIKLAYIN

Series Title: Game of Thrones
Total Seasons: 8
Rated: TV-MA
Year: 2011–
Release date: 17 Apr 2011
Genres: Adventure, Drama, Fantasy
IMDb ID: tt0944947
IMDb rating: 9.5 (1,113,297 votes)
Director: N/A
Writers: David Benioff, D.B. Weiss
Language: English
Cast: Peter Dinklage, Lena Headey, Emilia Clarke, Kit Harington
Dokuz asil aileler, Westeros'un efsanevi topraklarında kontrolü sağlamak için savaşıyorlar. Bu arada, unutulmuş binlerce yıl hareketsiz kaldıktan sonra cehennemden kurtulma mücadelesi verildi.
alt yazı var mı içinde
dayworkir 17-07-2017 09:27
altyazı yok
cideli37 17-07-2017 09:28
Keşke altyazı içine gömülü olsaydı. İndirip tv de izlemek için bir bahanem olurdu. Şu tv lerde usb ye atılan srt dosyalarını neden bir türlü okutmazlar anlamıyorum.
youngeagle3 17-07-2017 17:39
Altyazi eklendi benim tv goruyor altyazi ve dual ses yapiliyor senin sansina
cideli37 17-07-2017 19:04
Eminn Bunu Beğendi.
IMDB Yenile
Game of Thrones (2011)
56 Dakika - Adventure | Drama | Fantasy | Romance
IMDB Puanı: 9.5 9.5/10 ( oy)
Yönetmen(ler):
Yazar(lar):
Yıldızlar: Emilia Clarke | Peter Dinklage | Kit Harington | See full cast & crew
Kadro: Peter Dinklage | Lena Headey | Emilia Clarke | Kit Harington | Sophie Turner | Maisie Williams | Nikolaj Coster-Waldau | Iain Glen | Alfie Allen | John Bradley | Conleth Hill | Aidan Gillen | Gwendoline Christie | Isaac Hempstead Wright | Julian Glover | Liam Cunningham | Rory McCann | Jerome Flynn | Nathalie Emmanuel | Ben Crompton | Daniel Portman | Charles Dance | Natalie Dormer | Carice van Houten | Jack Gleeson | Michelle Fairley | Kristofer Hivju | Ian McElhinney | Jacob Anderson | Stephen Dillane | Kristian Nairn
game of thrones s07e01 1080p web.h264.mkv
Format                      : Matroska
Format version              : Version 4 / Version 2
File size                   : 1.59 GiB
Duration                    : 1 h 0 min
Overall bit rate mode       : Variable
Overall bit rate            : 3 728 kb/s
Encoded date                : UTC 2017-07-17 01:20:17
Writing application         : mkvmerge v8.8.0 ('Wind at my back') 64bit
Writing library             : libebml v1.3.3 + libmatroska v1.4.4 / Lavf57.25.100

Video
ID                          : 1
Format                      : AVC
Format/Info                 : Advanced Video Codec
Format profile              : High@L4
Format settings, CABAC      : Yes
Format settings, ReFrames   : 4 frames
Codec ID                    : V_MPEG4/ISO/AVC
Duration                    : 1 h 0 min
Bit rate mode               : Variable
Bit rate                    : 3 537 kb/s
Maximum bit rate            : 4 510 kb/s
Width                       : 1 920 pixels
Height                      : 1 080 pixels
Display aspect ratio        : 16:9
Frame rate mode             : Constant
Frame rate                  : 23.976 (24000/1001) FPS
Color space                 : YUV
Chroma subsampling          : 4:2:0
Bit depth                   : 8 bits
Scan type                   : Progressive
Bits/(Pixel*Frame)          : 0.071
Stream size                 : 1.51 GiB (95%)
Default                     : Yes
Forced                      : No

Audio
ID                          : 2
Format                      : AAC
Format/Info                 : Advanced Audio Codec
Format profile              : LC
Codec ID                    : A_AAC
Duration                    : 1 h 0 min
Bit rate                    : 192 kb/s
Channel(s)                  : 2 channels
Channel positions           : Front: L R
Sampling rate               : 48.0 kHz
Frame rate                  : 46.875 FPS (1024 spf)
Compression mode            : Lossy
Delay relative to video     : -41 ms
Stream size                 : 82.6 MiB (5%)
Default                     : Yes
Forced                      : No

web counter