Bu Sunum 0.5 Oranında Seed Edilmesi Mecburdur.
The Zookeeper'sn Wife Umut Bahçesi 2017 BluRay 1080p DUAL x264 TR-ENG TORK

Genişletmek için Tıkla!
16-07-2017 05:40 , TORKBOT Tarafından Yüklendi.
Kaynaklar: 5 / İndirilen: 0 / Boyut: 2.93 GB / Tamamlandı: 36
Torrenti İndir  Torrenti Şikayet Et Torrent Tanımı NFO Tanıtım Videosu
IMDB Puanı: 7.0 7.0/10 Kategori: Belgesel | Biyografi | Drama
Kategori: Yabancı Filmler > 1080p
Anonim Yükleyicihttp://www.imdb.com/title/tt1730768/

The Zookeeper's Wife Umut Bahçesi 2017 1080p DUAL TR-ENG x264 TORK





Hayvan bakıcısı Karısı Varşova Zoo, Antonina ve Alman işgali sırasında insan ve hayvanların yüzlerce kaydetmek yardımcı Jan Zabinski, koruyucuları göz anlatıyor.
Yönetmen: Niki Caro
yazarlar: Angela Workman (senaryo), Diane Ackerman (kitap)
Yıldızlar: Jessica Chastain , Johan Heldenbergh , Daniel Brühl |


PETUNYA, sevket8302, volkanbayramoglu ve diger 12 kisi bunu begendi.
The Zookeeper's Wife Umut Bahçesi 2017 1080p DUAL TR-ENG x264 TORK





Hayvan bakıcısı Karısı Varşova Zoo, Antonina ve Alman işgali sırasında insan ve hayvanların yüzlerce kaydetmek yardımcı Jan Zabinski, koruyucuları göz anlatıyor.
Yönetmen: Niki Caro
yazarlar: Angela Workman (senaryo), Diane Ackerman (kitap)
Yıldızlar: Jessica Chastain , Johan Heldenbergh , Daniel Brühl |


Henüz yorum yapılmamış.
IMDB Yenile
The Zookeeper's Wife (2017)
127 Dakika - Biography | Drama | History | War
IMDB Puanı: 7.0 7.0/10 ( oy)
Yönetmen(ler): Niki Caro
Yazar(lar): Angela Workman | Diane Ackerman
Yıldızlar: Jessica Chastain | Johan Heldenbergh | Daniel Brühl | See full cast & crew
Kadro: Jessica Chastain | Johan Heldenbergh | Daniel Brühl | Timothy Radford | Efrat Dor | Shira Haas | Val Maloku | Martha Issová | Frederick Preston | Viktoria Zakharyanova
The Zookeeper'sn Wife Umut Bah#esi 2017 BluRay 1080p DUAL x264 TR-ENG TORK.mkv
Format                      : Matroska
Format version              : Version 4 / Version 2
File size                   : 2.93 GiB
Duration                    : 2h 6mn
Overall bit rate            : 3 313 Kbps
Movie name                  : cideli37 
Encoded date                : UTC 2017-07-16 03:16:58
Writing application         : mkvmerge v9.6.0 ('Slave To Your Mind') 64bit
Writing library             : libebml v1.3.4 + libmatroska v1.4.5

Video
ID                          : 1
Format                      : AVC
Format/Info                 : Advanced Video Codec
Format profile              : High@L4
Format settings, CABAC      : Yes
Format settings, ReFrames   : 4 frames
Codec ID                    : V_MPEG4/ISO/AVC
Duration                    : 2h 6mn
Bit rate                    : 2 866 Kbps
Width                       : 1 920 pixels
Height                      : 800 pixels
Display aspect ratio        : 2.40:1
Frame rate mode             : Constant
Frame rate                  : 23.976 (24000/1001) fps
Color space                 : YUV
Chroma subsampling          : 4:2:0
Bit depth                   : 8 bits
Scan type                   : Progressive
Bits/(Pixel*Frame)          : 0.078
Stream size                 : 2.53 GiB (86%)
Writing library             : x264 core 148 r2721 72d53ab
Encoding settings           : cabac=1 / ref=3 / deblock=1:0:0 / analyse=0x3:0x113 / me=hex / subme=7 / psy=1 / psy_rd=1.00:0.00 / mixed_ref=1 / me_range=16 / chroma_me=1 / trellis=1 / 8x8dct=1 / cqm=0 / deadzone=21,11 / fast_pskip=1 / chroma_qp_offset=-2 / threads=12 / lookahead_threads=2 / sliced_threads=0 / nr=0 / decimate=1 / interlaced=0 / bluray_compat=0 / constrained_intra=0 / bframes=3 / b_pyramid=2 / b_adapt=1 / b_bias=0 / direct=1 / weightb=1 / open_gop=0 / weightp=2 / keyint=250 / keyint_min=23 / scenecut=40 / intra_refresh=0 / rc_lookahead=40 / rc=2pass / mbtree=1 / bitrate=2866 / ratetol=1.0 / qcomp=0.60 / qpmin=0 / qpmax=69 / qpstep=4 / cplxblur=20.0 / qblur=0.5 / ip_ratio=1.40 / aq=1:1.00
Default                     : Yes
Forced                      : No

Audio #1
ID                          : 2
Format                      : AC-3
Format/Info                 : Audio Coding 3
Mode extension              : CM (complete main)
Format settings, Endianness : Big
Codec ID                    : A_AC3
Duration                    : 2h 6mn
Bit rate mode               : Constant
Bit rate                    : 224 Kbps
Channel(s)                  : 2 channels
Channel positions           : Front: L R
Sampling rate               : 48.0 KHz
Frame rate                  : 31.250 fps (1536 spf)
Compression mode            : Lossy
Stream size                 : 203 MiB (7%)
Title                       : cideli37
Language                    : Turkish
Default                     : No
Forced                      : No

Audio #2
ID                          : 3
Format                      : AC-3
Format/Info                 : Audio Coding 3
Mode extension              : CM (complete main)
Format settings, Endianness : Big
Codec ID                    : A_AC3
Duration                    : 2h 6mn
Bit rate mode               : Constant
Bit rate                    : 224 Kbps
Channel(s)                  : 2 channels
Channel positions           : Front: L R
Sampling rate               : 48.0 KHz
Frame rate                  : 31.250 fps (1536 spf)
Compression mode            : Lossy
Stream size                 : 203 MiB (7%)
Title                       : cideli37
Language                    : English
Default                     : No
Forced                      : No

web counter