Bu Sunum 0.5 Oranında Seed Edilmesi Mecburdur.
Şantaj 2017 BluRay m1080p DUAL TR-ENG x264 TORK

Genişletmek için Tıkla!
14-07-2017 20:46 , TORKBOT Tarafından Yüklendi.
Kaynaklar: 10 / İndirilen: 0 / Boyut: 1.86 GB / Tamamlandı: 81
Torrenti İndir  Torrenti Şikayet Et Torrent Tanımı NFO Tanıtım Videosu
IMDB Puanı: 6.3 6.3/10 Kategori: Aksiyon | Macera | Suç
Kategori: Yabancı Filmler > 1080p
Anonim Yükleyicihttp://www.imdb.com/title/tt2957760/

Şantaj 2017 BluRay m1080p DUAL TR-ENG x264 TORK
Karayipli bir ailenin tatili büyük bir felâkete dönüşür... Bir baba kendisini acımasız balıkçıların elinde bulur. Bu sırada karısının ve oğlunun hayatını kurtarmak için zamana karşı umutsuz bir yarış içine girer
SamsunGFB, muze, sevket8302 ve diger 13 kisi bunu begendi.
Şantaj 2017 BluRay m1080p DUAL TR-ENG x264 TORK
Karayipli bir ailenin tatili büyük bir felâkete dönüşür... Bir baba kendisini acımasız balıkçıların elinde bulur. Bu sırada karısının ve oğlunun hayatını kurtarmak için zamana karşı umutsuz bir yarış içine girer
Henüz yorum yapılmamış.
IMDB Yenile
Extortion (2017)
108 Dakika - Action | Adventure | Crime | Drama | Thriller
IMDB Puanı: 6.3 6.3/10 ( oy)
Yönetmen(ler): Phil Volken
Yazar(lar): Phil Volken
Yıldızlar: Eion Bailey | Bethany Joy Lenz | Barkhad Abdi | See full cast & crew
Kadro: Eion Bailey | Barkhad Abdi | Tim Griffin | Jack Wallace | Elid Barrios | Stephanie Baez | James Gordon Jennings | Welmo Romero
Santaj 2017 BluRay m1080p DUAL TR-ENG x264 TORK.mkv
Format                      : Matroska
Format version              : Version 4 / Version 2
File size                   : 1.86 GiB
Duration                    : 1 h 49 min
Overall bit rate            : 2 435 kb/s
Movie name                  : Santaj 2017 BluRay m1080p DUAL TR-ENG x264 TORK
Encoded date                : UTC 2017-07-14 18:31:19
Writing application         : mkvmerge v8.5.2 ('Crosses') 32bit
Writing library             : libebml v1.3.3 + libmatroska v1.4.4

Video
ID                          : 1
Format                      : AVC
Format/Info                 : Advanced Video Codec
Format profile              : High@L4.1
Format settings, CABAC      : Yes
Format settings, ReFrames   : 4 frames
Codec ID                    : V_MPEG4/ISO/AVC
Duration                    : 1 h 49 min
Bit rate                    : 2 050 kb/s
Width                       : 1 920 pixels
Height                      : 800 pixels
Display aspect ratio        : 2.40:1
Frame rate mode             : Constant
Frame rate                  : 23.976 (24000/1001) FPS
Color space                 : YUV
Chroma subsampling          : 4:2:0
Bit depth                   : 8 bits
Scan type                   : Progressive
Bits/(Pixel*Frame)          : 0.056
Stream size                 : 1.57 GiB (84%)
Writing library             : x264 core 148
Encoding settings           : cabac=1 / ref=4 / deblock=1:-1:-1 / analyse=0x3:0x133 / me=umh / subme=9 / psy=1 / psy_rd=1.00:0.15 / mixed_ref=1 / me_range=24 / chroma_me=1 / trellis=2 / 8x8dct=1 / cqm=0 / deadzone=21,11 / fast_pskip=0 / chroma_qp_offset=-3 / threads=12 / lookahead_threads=1 / sliced_threads=0 / nr=0 / decimate=1 / interlaced=0 / bluray_compat=0 / constrained_intra=0 / bframes=3 / b_pyramid=2 / b_adapt=2 / b_bias=0 / direct=3 / weightb=1 / open_gop=0 / weightp=2 / keyint=250 / keyint_min=23 / scenecut=40 / intra_refresh=0 / rc_lookahead=60 / rc=2pass / mbtree=1 / bitrate=2050 / ratetol=1.0 / qcomp=0.60 / qpmin=0 / qpmax=69 / qpstep=4 / cplxblur=20.0 / qblur=0.5 / vbv_maxrate=31250 / vbv_bufsize=31250 / nal_hrd=none / filler=0 / ip_ratio=1.40 / aq=1:1.00
Default                     : Yes
Forced                      : No

Audio #1
ID                          : 2
Format                      : AC-3
Format/Info                 : Audio Coding 3
Format settings, Endianness : Big
Codec ID                    : A_AC3
Duration                    : 1 h 49 min
Bit rate mode               : Constant
Bit rate                    : 192 kb/s
Channel(s)                  : 2 channels
Channel positions           : Front: L R
Sampling rate               : 48.0 kHz
Frame rate                  : 31.250 FPS (1536 spf)
Bit depth                   : 16 bits
Compression mode            : Lossy
Stream size                 : 150 MiB (8%)
Title                       : cideli37
Language                    : Turkish
Service kind                : Complete Main
Default                     : Yes
Forced                      : No

Audio #2
ID                          : 3
Format                      : AC-3
Format/Info                 : Audio Coding 3
Format settings, Endianness : Big
Codec ID                    : A_AC3
Duration                    : 1 h 49 min
Bit rate mode               : Constant
Bit rate                    : 192 kb/s
Channel(s)                  : 2 channels
Channel positions           : Front: L R
Sampling rate               : 48.0 kHz
Frame rate                  : 31.250 FPS (1536 spf)
Bit depth                   : 16 bits
Compression mode            : Lossy
Stream size                 : 150 MiB (8%)
Title                       : CIDELI37
Language                    : English
Service kind                : Complete Main
Default                     : No
Forced                      : No

web counter