Dolunay BL 04 HDTvRip 720p AC3 by TheWelleTy TORK

Genişletmek için Tıkla!
Dün Saat: 22:50 , TheWelleTy Tarafından Yüklendi.
Kaynaklar: 7 / İndirilen: 0 / Boyut: 1002.51 MB / Tamamlandı: 14
Torrenti İndir  Torrenti Şikayet Et Torrent Tanımı Tanıtım Videosu
IMDB Puanı: 8.5 8.5/10 Kategori: Aile | Romantik
Kategori: TV Kayıtları > Yerli / Dizi
http://www.imdb.com/title/tt7115498/

Dolunay BL 04 HDTvRip 720p AC3 by TheWelleTy TORK





Genişlet Kod:
General
Unique ID                   : 253310071563986753743732024200865508168 (0xBE91BEC5B065D70B8FECD0A4956FEB48)
Complete name               : D:\TORK\Dolunay.BL.04.HDTvRip.720p.AC3.by.TheWelleTy.TORK.mkv
Format                      : Matroska
Format version              : Version 2
File size                   : 1 003 MiB
Duration                    : 1 h 54 min
Overall bit rate            : 1 225 kb/s
Encoded date                : UTC 2017-07-25 20:48:16
Writing application         : mkvmerge v3.3.0 ('Language') built on Mar 24 2010 14:59:24
Writing library             : libebml v0.8.0 + libmatroska v0.9.0

Video
ID                          : 1
Format                      : AVC
Format/Info                 : Advanced Video Codec
Format profile              : High@L3.1
Format settings, CABAC      : Yes
Format settings, ReFrames   : 4 frames
Codec ID                    : V_MPEG4/ISO/AVC
Duration                    : 1 h 54 min
Bit rate                    : 1 106 kb/s
Width                       : 1 280 pixels
Height                      : 720 pixels
Display aspect ratio        : 16:9
Frame rate mode             : Constant
Frame rate                  : 25.000 FPS
Color space                 : YUV
Chroma subsampling          : 4:2:0
Bit depth                   : 8 bits
Scan type                   : Progressive
Bits/(Pixel*Frame)          : 0.048
Stream size                 : 878 MiB (88%)
Writing library             : x264 core 133 r2334 a3ac64b
Encoding settings           : cabac=1 / ref=3 / deblock=1:-1:-1 / analyse=0x3:0x113 / me=hex / subme=7 / psy=1 / psy_rd=1.00:0.15 / mixed_ref=1 / me_range=16 / chroma_me=1 / trellis=1 / 8x8dct=1 / cqm=0 / deadzone=21,11 / fast_pskip=1 / chroma_qp_offset=-3 / threads=18 / lookahead_threads=3 / sliced_threads=0 / nr=0 / decimate=1 / interlaced=0 / bluray_compat=0 / constrained_intra=0 / bframes=3 / b_pyramid=2 / b_adapt=1 / b_bias=0 / direct=1 / weightb=1 / open_gop=0 / weightp=2 / keyint=250 / keyint_min=25 / scenecut=40 / intra_refresh=0 / rc_lookahead=40 / rc=abr / mbtree=1 / bitrate=1106 / ratetol=1.0 / qcomp=0.60 / qpmin=0 / qpmax=69 / qpstep=4 / ip_ratio=1.40 / aq=1:1.00
Default                     : No
Forced                      : No

Audio
ID                          : 2
Format                      : AC-3
Format/Info                 : Audio Coding 3
Format settings, Endianness : Big
Codec ID                    : A_AC3
Duration                    : 1 h 54 min
Bit rate mode               : Constant
Bit rate                    : 128 kb/s
Channel(s)                  : 2 channels
Channel positions           : Front: L R
Sampling rate               : 48.0 kHz
Frame rate                  : 31.250 FPS (1536 spf)
Bit depth                   : 16 bits
Compression mode            : Lossy
Stream size                 : 105 MiB (10%)
Language                    : English
Service kind                : Complete Main
Default                     : No
Forced                      : No




Adi Efsane BL 24 HDTvRip 720p AC3 by TheWelleTy TORK

Genişletmek için Tıkla!
Dün Saat: 22:44 , TheWelleTy Tarafından Yüklendi.
Kaynaklar: 10 / İndirilen: 0 / Boyut: 1.12 GB / Tamamlandı: 19
Torrenti İndir  Torrenti Şikayet Et Torrent Tanımı Tanıtım Videosu
IMDB Puanı: 7.1 7.1/10 Kategori: Romantik
Kategori: TV Kayıtları > Yerli / Dizi
http://www.imdb.com/title/tt6550350/

Adi Efsane BL 24 HDTvRip 720p AC3 by TheWelleTy TORK





Genişlet Kod:
General
Unique ID                   : 225092435166140077147305811173618588304 (0xA95739E29DF46AAFB3DFA676B46D9A90)
Complete name               : D:\TORK\Adi.Efsane.BL.24.HDTvRip.720p.AC3.by.TheWelleTy.TORK.mkv
Format                      : Matroska
Format version              : Version 2
File size                   : 1.12 GiB
Duration                    : 2 h 9 min
Overall bit rate            : 1 230 kb/s
Encoded date                : UTC 2017-07-25 20:41:18
Writing application         : mkvmerge v3.3.0 ('Language') built on Mar 24 2010 14:59:24
Writing library             : libebml v0.8.0 + libmatroska v0.9.0

Video
ID                          : 1
Format                      : AVC
Format/Info                 : Advanced Video Codec
Format profile              : High@L3.1
Format settings, CABAC      : Yes
Format settings, ReFrames   : 4 frames
Codec ID                    : V_MPEG4/ISO/AVC
Duration                    : 2 h 9 min
Bit rate                    : 1 099 kb/s
Width                       : 1 280 pixels
Height                      : 720 pixels
Display aspect ratio        : 16:9
Frame rate mode             : Constant
Frame rate                  : 25.000 FPS
Color space                 : YUV
Chroma subsampling          : 4:2:0
Bit depth                   : 8 bits
Scan type                   : Progressive
Bits/(Pixel*Frame)          : 0.048
Stream size                 : 1 001 MiB (88%)
Writing library             : x264 core 133 r2334 a3ac64b
Encoding settings           : cabac=1 / ref=3 / deblock=1:-1:-1 / analyse=0x3:0x113 / me=hex / subme=7 / psy=1 / psy_rd=1.00:0.15 / mixed_ref=1 / me_range=16 / chroma_me=1 / trellis=1 / 8x8dct=1 / cqm=0 / deadzone=21,11 / fast_pskip=1 / chroma_qp_offset=-3 / threads=18 / lookahead_threads=3 / sliced_threads=0 / nr=0 / decimate=1 / interlaced=0 / bluray_compat=0 / constrained_intra=0 / bframes=3 / b_pyramid=2 / b_adapt=1 / b_bias=0 / direct=1 / weightb=1 / open_gop=0 / weightp=2 / keyint=250 / keyint_min=25 / scenecut=40 / intra_refresh=0 / rc_lookahead=40 / rc=abr / mbtree=1 / bitrate=1099 / ratetol=1.0 / qcomp=0.60 / qpmin=0 / qpmax=69 / qpstep=4 / ip_ratio=1.40 / aq=1:1.00
Default                     : No
Forced                      : No

Audio
ID                          : 2
Format                      : AC-3
Format/Info                 : Audio Coding 3
Format settings, Endianness : Big
Codec ID                    : A_AC3
Duration                    : 2 h 9 min
Bit rate mode               : Constant
Bit rate                    : 128 kb/s
Channel(s)                  : 2 channels
Channel positions           : Front: L R
Sampling rate               : 48.0 kHz
Frame rate                  : 31.250 FPS (1536 spf)
Bit depth                   : 16 bits
Compression mode            : Lossy
Stream size                 : 119 MiB (10%)
Language                    : English
Service kind                : Complete Main
Default                     : No
Forced                      : No




Ruya BL 02 HDTvRip 720p AC3 by ramses77 TORK

Genişletmek için Tıkla!
Dün Saat: 21:48 , TheWelleTy Tarafından Yüklendi.
Kaynaklar: 7 / İndirilen: 0 / Boyut: 1.14 GB / Tamamlandı: 14
Torrenti İndir  Torrenti Şikayet Et Torrent Tanımı Tanıtım Videosu
IMDB Puanı: 5.1 5.1/10 Kategori: Drama
Kategori: TV Kayıtları > Yerli / Dizi
http://www.imdb.com/title/tt5636334/

Ruya BL 02 HDTvRip 720p AC3 by ramses77 TORK





Genişlet Kod:
Genel
Eşsiz ID                                 :174433622768829801440301483096731608000 (0x833AB198EF3463F7B52B4E5899F8E3C0)
Tam isim                                 :E:\Diziler\Rüya\Ruya.BL.02.HDTvRip.720p.AC3.by.ramses77.TORK.mkv
Biçim                                    :Matroska
Biçim sürümü                             :Version 2
Dosya boyutu                             :1.14 GiB
Süre                                     :2 s 12dk
Kapsamlı bit oranı                       :1 234 kb/s
Kodlanma tarihi                          :UTC 2017-07-25 19:46:34
Yapım uygulaması                         :mkvmerge v3.3.0 ('Language') built on Mar 24 2010 14:59:24
Yapım kütüphanesi                        :libebml v0.8.0 + libmatroska v0.9.0

Görüntü
ID                                       :1
Biçim                                    :AVC
Biçim/Bilgi                              :Advanced Video Codec
Biçim profili                            :High@L3.1
Biçim ayarları, CABAC                    :Evet
Biçim ayarları, RefFrames                :4 kare
Kodek ID                                 :V_MPEG4/ISO/AVC
Süre                                     :2 s 12dk
Bit oranı                                :1 103 kb/s
Genişlik                                 :1 280 piksel
Yükseklik                                :720 piksel
Görüntü en-boy oranı                     :16:9
Kare hız modu                            :Sabit
Kare hızı                                :25.000 kare/s
Renk alanı                               :YUV
Krom altörnekleme                        :4:2:0
Bit yoğunluğu                            :8 bit
Tarama türü                              :Aşamalı
Bit/(Piksel*Kare)                        :0.048
Akış boyutu                              :1.00 GiB (88%)
Yapım kütüphanesi                        :x264 core 128 r2216 198a7ea
Kodlama ayarları                         :cabac=1 / ref=3 / deblock=1:-1:-1 / analyse=0x3:0x113 / me=hex / subme=7 / psy=1 / psy_rd=1.00:0.15 / mixed_ref=1 / me_range=16 / chroma_me=1 / trellis=1 / 8x8dct=1 / cqm=0 / deadzone=21,11 / fast_pskip=1 / chroma_qp_offset=-3 / threads=12 / lookahead_threads=2 / sliced_threads=0 / nr=0 / decimate=1 / interlaced=0 / bluray_compat=0 / constrained_intra=0 / bframes=3 / b_pyramid=2 / b_adapt=1 / b_bias=0 / direct=1 / weightb=1 / open_gop=0 / weightp=2 / keyint=250 / keyint_min=25 / scenecut=40 / intra_refresh=0 / rc_lookahead=40 / rc=abr / mbtree=1 / bitrate=1103 / ratetol=1.0 / qcomp=0.60 / qpmin=0 / qpmax=69 / qpstep=4 / ip_ratio=1.40 / aq=1:1.00
Default                                  :Hayır
Forced                                   :Hayır

Ses
ID                                       :2
Biçim                                    :AC-3
Biçim/Bilgi                              :Audio Coding 3
Biçim ayarları, Endianess                :Big
Kodek ID                                 :A_AC3
Süre                                     :2 s 12dk
Bit oranı modu                           :Sabit
Bit oranı                                :128 kb/s
Kanal                                    :2 kanal
Kanal konumları                          :Front: L R
Örnekleme oranı                          :48.0 kHz
Kare hızı                                :31.250 kare/s (1536 SPF)
Bit yoğunluğu                            :16 bit
Sıkıştırma kipi                          :Kayıplı
Akış boyutu                              :121 MiB (10%)
Dil                                      :İngilizce
ServiceKind/String                       :Complete Main
Default                                  :Hayır
Forced                                   :Hayır




Deli Gonul BL 04 HDTvRip 720p AC3 by ramses77 TORK

Genişletmek için Tıkla!
Dün Saat: 21:41 , TheWelleTy Tarafından Yüklendi.
Kaynaklar: 3 / İndirilen: 0 / Boyut: 1.01 GB / Tamamlandı: 3
Torrenti İndir  Torrenti Şikayet Et Torrent Tanımı Tanıtım Videosu
IMDB Puanı: 6.2 6.2/10 Kategori: Drama
Kategori: TV Kayıtları > Yerli / Dizi
http://www.imdb.com/title/tt7107142/

Deli Gonul BL 04 HDTvRip 720p AC3 by ramses77 TORK





Genişlet Kod:
Genel
Eşsiz ID                                 :171953547979677947820289771717100882420 (0x815D0C783E507073BC426108DAF0C9F4)
Tam isim                                 :E:\Diziler\Deli Gönül\Deli.Gonul.BL.04.HDTvRip.720p.AC3.by.ramses77.TORK.mkv
Biçim                                    :Matroska
Biçim sürümü                             :Version 2
Dosya boyutu                             :1.01 GiB
Süre                                     :2 s 7dk
Kapsamlı bit oranı                       :1 129 kb/s
Kodlanma tarihi                          :UTC 2017-07-25 19:38:55
Yapım uygulaması                         :mkvmerge v3.3.0 ('Language') built on Mar 24 2010 14:59:24
Yapım kütüphanesi                        :libebml v0.8.0 + libmatroska v0.9.0

Görüntü
ID                                       :1
Biçim                                    :AVC
Biçim/Bilgi                              :Advanced Video Codec
Biçim profili                            :High@L3.1
Biçim ayarları, CABAC                    :Evet
Biçim ayarları, RefFrames                :4 kare
Kodek ID                                 :V_MPEG4/ISO/AVC
Süre                                     :2 s 7dk
Bit oranı                                :1 000 kb/s
Genişlik                                 :1 280 piksel
Yükseklik                                :720 piksel
Görüntü en-boy oranı                     :16:9
Kare hız modu                            :Sabit
Kare hızı                                :25.000 kare/s
Renk alanı                               :YUV
Krom altörnekleme                        :4:2:0
Bit yoğunluğu                            :8 bit
Tarama türü                              :Aşamalı
Bit/(Piksel*Kare)                        :0.043
Akış boyutu                              :893 MiB (87%)
Yapım kütüphanesi                        :x264 core 128 r2216 198a7ea
Kodlama ayarları                         :cabac=1 / ref=3 / deblock=1:-1:-1 / analyse=0x3:0x113 / me=hex / subme=7 / psy=1 / psy_rd=1.00:0.15 / mixed_ref=1 / me_range=16 / chroma_me=1 / trellis=1 / 8x8dct=1 / cqm=0 / deadzone=21,11 / fast_pskip=1 / chroma_qp_offset=-3 / threads=12 / lookahead_threads=2 / sliced_threads=0 / nr=0 / decimate=1 / interlaced=0 / bluray_compat=0 / constrained_intra=0 / bframes=3 / b_pyramid=2 / b_adapt=1 / b_bias=0 / direct=1 / weightb=1 / open_gop=0 / weightp=2 / keyint=250 / keyint_min=25 / scenecut=40 / intra_refresh=0 / rc_lookahead=40 / rc=abr / mbtree=1 / bitrate=1000 / ratetol=1.0 / qcomp=0.60 / qpmin=0 / qpmax=69 / qpstep=4 / ip_ratio=1.40 / aq=1:1.00
Default                                  :Hayır
Forced                                   :Hayır

Ses
ID                                       :2
Biçim                                    :AC-3
Biçim/Bilgi                              :Audio Coding 3
Biçim ayarları, Endianess                :Big
Kodek ID                                 :A_AC3
Süre                                     :2 s 7dk
Bit oranı modu                           :Sabit
Bit oranı                                :128 kb/s
Kanal                                    :2 kanal
Kanal konumları                          :Front: L R
Örnekleme oranı                          :48.0 kHz
Kare hızı                                :31.250 kare/s (1536 SPF)
Bit yoğunluğu                            :16 bit
Sıkıştırma kipi                          :Kayıplı
Akış boyutu                              :117 MiB (11%)
Dil                                      :İngilizce
ServiceKind/String                       :Complete Main
Default                                  :Hayır
Forced                                   :Hayır




Game Of Thrones Taht Oyunları 2017 S07E01 1080p AMZN DUAL TR-ENG WEBRip x264 AC3 5.1 TORK

Genişletmek için Tıkla!
Dün Saat: 18:59 , TORKBOT Tarafından Yüklendi.
Kaynaklar: 2 / İndirilen: 0 / Boyut: 1.46 GB / Tamamlandı: 5
Torrenti İndir  Torrenti Şikayet Et Torrent Tanımı NFO Tanıtım Videosu
IMDB Puanı: 9.5 9.5/10 Kategori: Drama | Fantastik | Macera
Kategori: TV Kayıtları > Yabancı / Dizi
Anonim Yükleyicihttp://www.imdb.com/title/tt0944947/

Game Of Thrones Taht Oyunları 2017 S07E01 1080p AMZN DUAL TR-ENG WEBRip x264 AC3 5.1 TORK
Dizi Hakkında
Yapımı : 2017 - ABD , İngiltere , İrlanda , İzlanda , Malta , Hırvatistan , İspanya
Tür : Dram , Fantastik , Macera , Savaş , Tarih
Süre: 60 Dak.
Yönetmen : David Benioff, Alan Taylor, Timothy Van Patten, Brian Kirk, David Nutter, Mark Mylod, Daniel Minahan, Jeremy Podeswa, Miguel Sapochnik
Oyuncular : Lena Headey , Emilia Clarke , Peter Dinklage , Natalie Dormer , Kit Harington
Senaryo : George R.R. Martin , David Benioff , D.b. Weiss
Yapımcı : David Benioff

Yedi Krallık diyarının kralı olan Robert Baratheon beklenmedik bir zamanda hayatını kaybederek Demir Taht'ı küçüklük arkadaşı olan Eddard Stark'a bıraktığını vasiyet eder. Eddard çevrenindeki sinsilik ve kokuşmuşluktan dolayı kime güveneceğini bilemez. Demir Taht'ın eski soy varisleri için de beklenen an gelmiştir. Böylelikle, bu boşluktan yararlanarak Demir Taht'a oturmak isteyen hanedanlar arasındaki amansız savaş başlar. Arkadaş ile düşmanın, yalan ile gerçeğin birbirine girdiği bu dönemde Yedi Krallık için zor zamanlar da yavaşça yaklaşmaktadır. Ufukta bir ömür süren kış kendini gösterir ve kış ile beraber Kuzey'de, Kara Nöbet'in ardında bilinmeyen karanlık bir güç de Yedi Krallık üzerine korku salar. Tüm bu gürültünün içinde ise, Demir Taht sahibini beklemektedir
Game Of Thrones Taht Oyunları 2017 S07E02 1080p AMZN DUAL TR-ENG WEBRip x264 AC3 5.1 TORK

Dün Saat: 18:33 , TORKBOT Tarafından Yüklendi.
Kaynaklar: 3 / İndirilen: 0 / Boyut: 1.47 GB / Tamamlandı: 8
Torrenti İndir  Torrenti Şikayet Et Torrent Tanımı Tanıtım Videosu
IMDB Puanı: 9.5 9.5/10 Kategori: Drama | Fantastik | Macera
Kategori: TV Kayıtları > Yabancı / Dizi
Anonim Yükleyicihttp://www.imdb.com/title/tt0944947/

Game Of Thrones Taht Oyunları 2017 S07E02 1080p AMZN DUAL TR-ENG WEBRip x264 AC3 5.1 TORK




Dizi Hakkında
Yapımı : 2017 - ABD , İngiltere , İrlanda , İzlanda , Malta , Hırvatistan , İspanya
Tür : Dram , Fantastik , Macera , Savaş , Tarih
Süre: 60 Dak.
Yönetmen : David Benioff, Alan Taylor, Timothy Van Patten, Brian Kirk, David Nutter, Mark Mylod, Daniel Minahan, Jeremy Podeswa, Miguel Sapochnik
Oyuncular : Lena Headey , Emilia Clarke , Peter Dinklage , Natalie Dormer , Kit Harington
Senaryo : George R.R. Martin , David Benioff , D.b. Weiss
Yapımcı : David Benioff
Yedi Krallık diyarının kralı olan Robert Baratheon beklenmedik bir zamanda hayatını kaybederek Demir Taht'ı küçüklük arkadaşı olan Eddard Stark'a bıraktığını vasiyet eder. Eddard çevrenindeki sinsilik ve kokuşmuşluktan dolayı kime güveneceğini bilemez. Demir Taht'ın eski soy varisleri için de beklenen an gelmiştir. Böylelikle, bu boşluktan yararlanarak Demir Taht'a oturmak isteyen hanedanlar arasındaki amansız savaş başlar. Arkadaş ile düşmanın, yalan ile gerçeğin birbirine girdiği bu dönemde Yedi Krallık için zor zamanlar da yavaşça yaklaşmaktadır. Ufukta bir ömür süren kış kendini gösterir ve kış ile beraber Kuzey'de, Kara Nöbet'in ardında bilinmeyen karanlık bir güç de Yedi Krallık üzerine korku salar. Tüm bu gürültünün içinde ise, Demir Taht sahibini beklemektedir
Cember: Kizimi Bulun HDTvRip 720p AC3 by TheWelleTy TORK

Genişletmek için Tıkla!
Pazartesi saat 23:49 de , TheWelleTy Tarafından Yüklendi.
Kaynaklar: 8 / İndirilen: 0 / Boyut: 805.62 MB / Tamamlandı: 26
Torrenti İndir  Torrenti Şikayet Et Torrent Tanımı
Kategori: Aksiyon
Kategori: TV Kayıtları > Yerli / Dizi

Cember: Kizimi Bulun HDTvRip 720p AC3 by TheWelleTy TORK





Açiklama : Kızımı Bulun! Beş yaşındaki Peri Anaokulunda kaçırılır. Peri’nin dedesi Refik bey, eski emniyet amiri olduğu için bağlantılarını kullanarak torununun bulunması için Barış’ın önderliğindeki Özel ekibi devreye sokturur. Ekibimiz bu sefer bir cinayetin değil kayıp ve hasta bir kızın peşindedir. Zamanları kısıtlıdır. Eldeki deliler bir süre sonra ekibimizi şaşkına çevirecek gerçeklerle yüzleştirir. Tüm kanıtlar tek bir kişiyi gösterirken yeni bilgilerle bir anda her şey başa döner. Peri’nin geçmişi nedir? Peri’yi kaçıran tam olarak kimdir ve ne istiyordur? Ekibimiz hayati tehlikesi olan Peri’yi kurtarabilecek midir? Özel ekip iş başında... Her filmde farklı ünlü isimlerin rol alacağı serinin dördüncü filmi olan Kızımı Bulun’da konuk oyuncu olan Melisa Sözen kızını arayan bir anne rolü ile ekrana gelecek. Serinin diğer filmlerinde rol alan ünlü isimler arasında İrem Altuğ gibi isimler yer alıyor.



Genişlet Kod:
General
Unique ID : 201590942134640317257017773801291733626 (0x97A900D18C09BBE98BF95814BFD15A7A)
Complete name : D:\TORK\Cember.Kizimi.Bulun.HDTvRip.720p.AC3.by.TheWelleTy.TORK.mkv
Format : Matroska
Format version : Version 2
File size : 806 MiB
Duration : 1 h 31 min
Overall bit rate : 1 230 kb/s
Encoded date : UTC 2017-07-24 21:45:05
Writing application : mkvmerge v3.3.0 ('Language') built on Mar 24 2010 14:59:24
Writing library : libebml v0.8.0 + libmatroska v0.9.0
Video
ID : 1
Format : AVC
Format/Info : Advanced Video Codec
Format profile : High@L3.1
Format settings, CABAC : Yes
Format settings, ReFrames : 4 frames
Codec ID : V_MPEG4/ISO/AVC
Duration : 1 h 31 min
Bit rate : 1 100 kb/s
Width : 1 280 pixels
Height : 720 pixels
Display aspect ratio : 16:9
Frame rate mode : Constant
Frame rate : 25.000 FPS
Color space : YUV
Chroma subsampling : 4:2:0
Bit depth : 8 bits
Scan type : Progressive
Bits/(Pixel*Frame) : 0.048
Stream size : 706 MiB (88%)
Writing library : x264 core 133 r2334 a3ac64b
Encoding settings : cabac=1 / ref=3 / deblock=1:-1:-1 / analyse=0x3:0x113 / me=hex / subme=7 / psy=1 / psy_rd=1.00:0.15 / mixed_ref=1 / me_range=16 / chroma_me=1 / trellis=1 / 8x8dct=1 / cqm=0 / deadzone=21,11 / fast_pskip=1 / chroma_qp_offset=-3 / threads=18 / lookahead_threads=3 / sliced_threads=0 / nr=0 / decimate=1 / interlaced=0 / bluray_compat=0 / constrained_intra=0 / bframes=3 / b_pyramid=2 / b_adapt=1 / b_bias=0 / direct=1 / weightb=1 / open_gop=0 / weightp=2 / keyint=250 / keyint_min=25 / scenecut=40 / intra_refresh=0 / rc_lookahead=40 / rc=abr / mbtree=1 / bitrate=1100 / ratetol=1.0 / qcomp=0.60 / qpmin=0 / qpmax=69 / qpstep=4 / ip_ratio=1.40 / aq=1:1.00
Default : No
Forced : No
Audio
ID : 2
Format : AC-3
Format/Info : Audio Coding 3
Format settings, Endianness : Big
Codec ID : A_AC3
Duration : 1 h 31 min
Bit rate mode : Constant
Bit rate : 128 kb/s
Channel(s) : 2 channels
Channel positions : Front: L R
Sampling rate : 48.0 kHz
Frame rate : 31.250 FPS (1536 spf)
Bit depth : 16 bits
Compression mode : Lossy
Stream size : 83.8 MiB (10%)
Language : English
Service kind : Complete Main
Default : No
Forced : No


Iki Yalanci BL 03 HDTvRip 720p AC3 by ramses77 TORK

Genişletmek için Tıkla!
Pazartesi saat 22:54 de , ramses77 Tarafından Yüklendi.
Kaynaklar: 9 / İndirilen: 0 / Boyut: 998.84 MB / Tamamlandı: 23
Torrenti İndir  Torrenti Şikayet Et Torrent Tanımı
Kategori: Komedi | Romantik
Kategori: TV Kayıtları > Yerli / Dizi

Iki Yalanci BL 03 HDTvRip 720p AC3 by ramses77 TORK






[code]Genel

Eşsiz ID :223980949548670325034237811628228019009 (0xA8812969CFC5E830A8439F5D92650341)

Tam isim :E:\Diziler\İki Yalancı\Iki.Yalanci.BL.03.HDTvRip.720p.AC3.by.ramses77.TORK.mkv

Biçim :Matroska

Biçim sürümü :Version 2

Dosya boyutu :999 MiB

Süre :2 s 3dk

Kapsamlı bit oranı :1 131 kb/s

Kodlanma tarihi :UTC 2017-07-24 20:44:08

Yapım uygulaması :mkvmerge v3.3.0 ('Language') built on Mar 24 2010 14:59:24

Yapım kütüphanesi :libebml v0.8.0 + libmatroska v0.9.0

Görüntü

ID :1

Biçim :AVC

Biçim/Bilgi :Advanced Video Codec

Biçim profili :High@L3.1

Biçim ayarları, CABAC :Evet

Biçim ayarları, RefFrames :4 kare

Kodek ID :V_MPEG4/ISO/AVC

Süre :2 s 3dk

Bit oranı :1 000 kb/s

Genişlik :1 280 piksel

Yükseklik :720 piksel

Görüntü en-boy oranı :16:9

Kare hız modu :Sabit

Kare hızı :25.000 kare/s

Renk alanı :YUV

Krom altörnekleme :4:2:0

Bit yoğunluğu :8 bit

Tarama türü :Aşamalı

Bit/(Piksel*Kare) :0.043

Akış boyutu :866 MiB (87%)

Yapım kütüphanesi :x264 core 128 r2216 198a7ea

Kodlama ayarları :cabac=1 / ref=3 / deblock=1:-1:-1 / analyse=0x3:0x113 / me=hex / subme=7 / psy=1 / psy_rd=1.00:0.15 / mixed_ref=1 / me_range=16 / chroma_me=1 / trellis=1 / 8x8dct=1 / cqm=0 / deadzone=21,11 / fast_pskip=1 / chroma_qp_offset=-3 / threads=12 / lookahead_threads=2 / sliced_threads=0 / nr=0 / decimate=1 / interlaced=0 / bluray_compat=0 / constrained_intra=0 / bframes=3 / b_pyramid=2 / b_adapt=1 / b_bias=0 / direct=1 / weightb=1 / open_gop=0 / weightp=2 / keyint=250 / keyint_min=25 / scenecut=40 / intra_refresh=0 / rc_lookahead=40 / rc=abr / mbtree=1 / bitrate=1000 / ratetol=1.0 / qcomp=0.60 / qpmin=0 / qpmax=69 / qpstep=4 / ip_ratio=1.40 / aq=1:1.00

Default :Hayır

Forced :Hayır

Ses

ID :2

Biçim :AC-3

Biçim/Bilgi :Audio Coding 3

Biçim ayarları, Endianess :Big

Kodek ID :A_AC3

Süre :2 s 3dk

Bit oranı modu :Sabit

Bit oranı :128 kb/s

Kanal :2 kanal

Kanal konumları :Front: L R

Örnekleme oranı :48.0 kHz

Kare hızı :31.250 kare/s (1536 SPF)

Bit yoğunluğu :16 bit

Sıkıştırma kipi :Kayıplı

Akış boyutu :113 MiB (11%)

Dil :İngilizce

ServiceKind/String :Complete Main

Default :Hayır

Forced :Hayır

/code]





Game Of Thrones S07E02 1080p WEBDL x264 TR Altyazi TORK

Genişletmek için Tıkla!
Pazartesi saat 10:56 de , SALCI Tarafından Yüklendi.
Kaynaklar: 6 / İndirilen: 0 / Boyut: 1.54 GB / Tamamlandı: 74
Torrenti İndir  Torrenti Şikayet Et Torrent Tanımı Tanıtım Videosu
IMDB Puanı: 9.5 9.5/10 Kategori: Drama | Fantastik | Macera
Kategori: TV Kayıtları > Yabancı / Dizi
http://www.imdb.com/title/tt0944947/

Game Of Thrones S07E02 1080p WEBDL x264 TR Altyazi TORK

TR Altyazı Dizi içerisinde mevcuttur. İyi Seyirler.




Genişlet Kod:
Format            : Matroska at 3 727 kb/s
Length            : 1.54 GiB for 59dk 15s 552 ms

Video #0          : AVC at 3 536 kb/s
Aspect            : 1920 x 1080 (1.778) at 23.976 fps

Audio #0          : AAC at 192 kb/s
Infos             : 2 kanal, 48.0 kHz

Text #0           : UTF-8
Language          : tr




Game Of Thrones S07E02 720p HDTV x264 TR Altyazi TORK

Genişletmek için Tıkla!
Pazartesi saat 10:18 de , SALCI Tarafından Yüklendi.
Kaynaklar: 3 / İndirilen: 0 / Boyut: 928.17 MB / Tamamlandı: 47
Torrenti İndir  Torrenti Şikayet Et Torrent Tanımı Tanıtım Videosu
IMDB Puanı: 9.5 9.5/10 Kategori: Drama | Fantastik | Macera
Kategori: TV Kayıtları > Yabancı / Dizi
http://www.imdb.com/title/tt0944947/

Game Of Thrones S07E02 720p HDTV x264 TR Altyazi TORK

TR Altyazı Dizi içerisinde mevcuttur. İyi Seyirler.


Genişlet Kod:
Format            : Matroska at 2 238 kb/s
Length            : 928 MiB for 57dk 58s 851 ms

Video #0          : AVC at 1 852 kb/s
Aspect            : 1280 x 718 (1.783) at 23.976 fps

Audio #0          : AC-3 at 384 kb/s
Infos             : 6 kanal, 48.0 kHz

Text #0           : UTF-8
Language          : tr




Game Of Thrones S07E02 HDTV x264 TR Altyazi TORK

Genişletmek için Tıkla!
Pazartesi saat 10:18 de , SALCI Tarafından Yüklendi.
Kaynaklar: 2 / İndirilen: 0 / Boyut: 277.12 MB / Tamamlandı: 20
Torrenti İndir  Torrenti Şikayet Et Torrent Tanımı Tanıtım Videosu
IMDB Puanı: 9.5 9.5/10 Kategori: Drama | Fantastik | Macera
Kategori: TV Kayıtları > Yabancı / Dizi
http://www.imdb.com/title/tt0944947/

Game Of Thrones S07E02 HDTV x264 TR Altyazi TORK

TR Altyazı Dizi içerisinde mevcuttur. İyi Seyirler.


Genişlet Kod:
Format            : Matroska at 668 kb/s
Length            : 277 MiB for 57dk 58s 851 ms

Video #0          : AVC at 549 kb/s
Aspect            : 720 x 404 (1.782) at 23.976 fps

Audio #0          : AAC at 116 kb/s
Infos             : 2 kanal, 48.0 kHz

Text #0           : UTF-8
Language          : tr




Yaşamak Güzel Şey 2017 Yerli DvdRip TRDUB AC3 by cideli37 TORK

Genişletmek için Tıkla!
Cumartesi saat 08:27 de , cideli37 Tarafından Yüklendi.
Kaynaklar: 12 / İndirilen: 0 / Boyut: 1.94 GB / Tamamlandı: 68
Torrenti İndir  Torrenti Şikayet Et Torrent Tanımı NFO Tanıtım Videosu
IMDB Puanı: 8.1 8.1/10 Kategori: Komedi
Kategori: Yerli Filmler > BRRip-HDRip-DVDRip-WebDL
http://www.imdb.com/title/tt6822518/

Yaşamak Güzel Şey 2017 Yerli DvdRip TRDUB AC3 by cideli37 TORK
Film, yaşam koşullarına boyun eğen, pısırık bir adam olan Müfit’in başına gelen talihsiz bir olaya başkaldırması ile bir anti kahramana dönüşmesini ve hayatın güzelliklerini keşfetmesini konu ediyor.
Müfit Can Saçıntı'nın bu üçüncü filminde Saçıntı, başrolü Yasemin Conka ile paylaşıyor. İkiliye, Zihni Göktay, Ayşegül Atik, Günay Karacaoğlu, Reha Özcan, Renan Bilek, Onur Dilber, Merve Hazer, Bahar Süer, Fulden Akyürek, Nihan Tarhan, Nihan Taşyürek, Ali Çoban ve Fatih Koyunoğlu gibi güçlü oyunculardan oluşan dev bir kadro eşlik ediyor.
Kalp Atisi BL 04 HDTvRip 720p AC3 by ramses77 TORK

Genişletmek için Tıkla!
Cumartesi saat 07:42 de , TheWelleTy Tarafından Yüklendi.
Kaynaklar: 7 / İndirilen: 0 / Boyut: 1020.33 MB / Tamamlandı: 39
Torrenti İndir  Torrenti Şikayet Et Torrent Tanımı Tanıtım Videosu
IMDB Puanı: 8.5 8.5/10 Kategori: Drama
Kategori: TV Kayıtları > Yerli / Dizi
http://www.imdb.com/title/tt7115656/

Kalp Atisi BL 04 HDTvRip 720p AC3 by ramses77 TORK





Genişlet Kod:
Genel
Eşsiz ID                                 :182921021347022119686772247040444258059 (0x899D4EA7BD7F355DADFF7E8814DED70B)
Tam isim                                 :E:\Diziler\Kalp Atisi\Kalp.Atisi.BL.04.HDTvRip.720p.AC3.by.ramses77.TORK.mkv
Biçim                                    :Matroska
Biçim sürümü                             :Version 2
Dosya boyutu                             :1 020 MiB
Süre                                     :1 s 55dk
Kapsamlı bit oranı                       :1 234 kb/s
Kodlanma tarihi                          :UTC 2017-07-22 05:28:42
Yapım uygulaması                         :mkvmerge v3.3.0 ('Language') built on Mar 24 2010 14:59:24
Yapım kütüphanesi                        :libebml v0.8.0 + libmatroska v0.9.0

Görüntü
ID                                       :1
Biçim                                    :AVC
Biçim/Bilgi                              :Advanced Video Codec
Biçim profili                            :High@L3.1
Biçim ayarları, CABAC                    :Evet
Biçim ayarları, RefFrames                :4 kare
Kodek ID                                 :V_MPEG4/ISO/AVC
Süre                                     :1 s 55dk
Bit oranı                                :1 100 kb/s
Genişlik                                 :1 280 piksel
Yükseklik                                :720 piksel
Görüntü en-boy oranı                     :16:9
Kare hız modu                            :Sabit
Kare hızı                                :25.000 kare/s
Renk alanı                               :YUV
Krom altörnekleme                        :4:2:0
Bit yoğunluğu                            :8 bit
Tarama türü                              :Aşamalı
Bit/(Piksel*Kare)                        :0.048
Akış boyutu                              :894 MiB (88%)
Yapım kütüphanesi                        :x264 core 128 r2216 198a7ea
Kodlama ayarları                         :cabac=1 / ref=3 / deblock=1:-1:-1 / analyse=0x3:0x113 / me=hex / subme=7 / psy=1 / psy_rd=1.00:0.15 / mixed_ref=1 / me_range=16 / chroma_me=1 / trellis=1 / 8x8dct=1 / cqm=0 / deadzone=21,11 / fast_pskip=1 / chroma_qp_offset=-3 / threads=12 / lookahead_threads=2 / sliced_threads=0 / nr=0 / decimate=1 / interlaced=0 / bluray_compat=0 / constrained_intra=0 / bframes=3 / b_pyramid=2 / b_adapt=1 / b_bias=0 / direct=1 / weightb=1 / open_gop=0 / weightp=2 / keyint=250 / keyint_min=25 / scenecut=40 / intra_refresh=0 / rc_lookahead=40 / rc=abr / mbtree=1 / bitrate=1100 / ratetol=1.0 / qcomp=0.60 / qpmin=0 / qpmax=69 / qpstep=4 / ip_ratio=1.40 / aq=1:1.00
Default                                  :Hayır
Forced                                   :Hayır

Ses
ID                                       :2
Biçim                                    :AC-3
Biçim/Bilgi                              :Audio Coding 3
Biçim ayarları, Endianess                :Big
Kodek ID                                 :A_AC3
Süre                                     :1 s 55dk
Bit oranı modu                           :Sabit
Bit oranı                                :128 kb/s
Kanal                                    :2 kanal
Kanal konumları                          :Front: L R
Örnekleme oranı                          :48.0 kHz
Kare hızı                                :31.250 kare/s (1536 SPF)
Bit yoğunluğu                            :16 bit
Sıkıştırma kipi                          :Kayıplı
Akış boyutu                              :106 MiB (10%)
Dil                                      :İngilizce
ServiceKind/String                       :Complete Main
Default                                  :Hayır
Forced                                   :Hayır




Sevkat Yerimdar BL 09 HDTvRip 720p AC3 by TheWelleTy TORK

Genişletmek için Tıkla!
Cuma saat 23:22 de , TheWelleTy Tarafından Yüklendi.
Kaynaklar: 18 / İndirilen: 0 / Boyut: 1.34 GB / Tamamlandı: 77
Torrenti İndir  Torrenti Şikayet Et Torrent Tanımı Tanıtım Videosu
IMDB Puanı: 5.5 5.5/10 Kategori: Aile | Komedi
Kategori: TV Kayıtları > Yerli / Dizi
http://www.imdb.com/title/tt3283664/

Sevkat Yerimdar BL 09 HDTvRip 720p AC3 by TheWelleTy TORK





Genişlet Kod:
General
Unique ID                   : 253702739133045494087231544455437049539 (0xBEDD5EC731558EA1A7ED5032A8C55EC3)
Complete name               : D:\TORK\Sevkat.Yerimdar.BL.09.HDTvRip.720p.AC3.by.TheWelleTy.TORK.mkv
Format                      : Matroska
Format version              : Version 2
File size                   : 1.34 GiB
Duration                    : 2 h 36 min
Overall bit rate            : 1 227 kb/s
Encoded date                : UTC 2017-07-21 21:19:00
Writing application         : mkvmerge v3.3.0 ('Language') built on Mar 24 2010 14:59:24
Writing library             : libebml v0.8.0 + libmatroska v0.9.0

Video
ID                          : 1
Format                      : AVC
Format/Info                 : Advanced Video Codec
Format profile              : High@L3.1
Format settings, CABAC      : Yes
Format settings, ReFrames   : 4 frames
Codec ID                    : V_MPEG4/ISO/AVC
Duration                    : 2 h 36 min
Bit rate                    : 1 102 kb/s
Width                       : 1 280 pixels
Height                      : 720 pixels
Display aspect ratio        : 16:9
Frame rate mode             : Constant
Frame rate                  : 25.000 FPS
Color space                 : YUV
Chroma subsampling          : 4:2:0
Bit depth                   : 8 bits
Scan type                   : Progressive
Bits/(Pixel*Frame)          : 0.048
Stream size                 : 1.17 GiB (88%)
Writing library             : x264 core 133 r2334 a3ac64b
Encoding settings           : cabac=1 / ref=3 / deblock=1:-1:-1 / analyse=0x3:0x113 / me=hex / subme=7 / psy=1 / psy_rd=1.00:0.15 / mixed_ref=1 / me_range=16 / chroma_me=1 / trellis=1 / 8x8dct=1 / cqm=0 / deadzone=21,11 / fast_pskip=1 / chroma_qp_offset=-3 / threads=18 / lookahead_threads=3 / sliced_threads=0 / nr=0 / decimate=1 / interlaced=0 / bluray_compat=0 / constrained_intra=0 / bframes=3 / b_pyramid=2 / b_adapt=1 / b_bias=0 / direct=1 / weightb=1 / open_gop=0 / weightp=2 / keyint=250 / keyint_min=25 / scenecut=40 / intra_refresh=0 / rc_lookahead=40 / rc=abr / mbtree=1 / bitrate=1102 / ratetol=1.0 / qcomp=0.60 / qpmin=0 / qpmax=69 / qpstep=4 / ip_ratio=1.40 / aq=1:1.00
Default                     : No
Forced                      : No

Audio
ID                          : 2
Format                      : AC-3
Format/Info                 : Audio Coding 3
Format settings, Endianness : Big
Codec ID                    : A_AC3
Duration                    : 2 h 36 min
Bit rate mode               : Constant
Bit rate                    : 128 kb/s
Channel(s)                  : 2 channels
Channel positions           : Front: L R
Sampling rate               : 48.0 kHz
Frame rate                  : 31.250 FPS (1536 spf)
Bit depth                   : 16 bits
Compression mode            : Lossy
Stream size                 : 143 MiB (10%)
Language                    : English
Service kind                : Complete Main
Default                     : No
Forced                      : No




Kanatsiz Kuslar BL 06 HDTvRip 720p AC3 by TheWelleTy TORK

Genişletmek için Tıkla!
Cuma saat 20:35 de , TheWelleTy Tarafından Yüklendi.
Kaynaklar: 4 / İndirilen: 0 / Boyut: 1.26 GB / Tamamlandı: 7
Torrenti İndir  Torrenti Şikayet Et Torrent Tanımı
Kategori: Drama
Kategori: TV Kayıtları > Yerli / Dizi

Kanatsiz Kuslar BL 06 HDTvRip 720p AC3 by TheWelleTy TORK





Genişlet Kod:
General
Unique ID                   : 238838315873679046498063060939963779644 (0xB3AE9620FC3358CC94E62972CE064A3C)
Complete name               : D:\TORK\Kanatsiz.Kuslar.BL.06.HDTvRip.720p.AC3.by.TheWelleTy.TORK.mkv
Format                      : Matroska
Format version              : Version 2
File size                   : 1.26 GiB
Duration                    : 2 h 27 min
Overall bit rate            : 1 226 kb/s
Encoded date                : UTC 2017-07-21 18:30:47
Writing application         : mkvmerge v3.3.0 ('Language') built on Mar 24 2010 14:59:24
Writing library             : libebml v0.8.0 + libmatroska v0.9.0

Video
ID                          : 1
Format                      : AVC
Format/Info                 : Advanced Video Codec
Format profile              : High@L3.1
Format settings, CABAC      : Yes
Format settings, ReFrames   : 4 frames
Codec ID                    : V_MPEG4/ISO/AVC
Duration                    : 2 h 27 min
Bit rate                    : 1 102 kb/s
Width                       : 1 280 pixels
Height                      : 720 pixels
Display aspect ratio        : 16:9
Frame rate mode             : Constant
Frame rate                  : 25.000 FPS
Color space                 : YUV
Chroma subsampling          : 4:2:0
Bit depth                   : 8 bits
Scan type                   : Progressive
Bits/(Pixel*Frame)          : 0.048
Stream size                 : 1.11 GiB (88%)
Writing library             : x264 core 133 r2334 a3ac64b
Encoding settings           : cabac=1 / ref=3 / deblock=1:-1:-1 / analyse=0x3:0x113 / me=hex / subme=7 / psy=1 / psy_rd=1.00:0.15 / mixed_ref=1 / me_range=16 / chroma_me=1 / trellis=1 / 8x8dct=1 / cqm=0 / deadzone=21,11 / fast_pskip=1 / chroma_qp_offset=-3 / threads=18 / lookahead_threads=3 / sliced_threads=0 / nr=0 / decimate=1 / interlaced=0 / bluray_compat=0 / constrained_intra=0 / bframes=3 / b_pyramid=2 / b_adapt=1 / b_bias=0 / direct=1 / weightb=1 / open_gop=0 / weightp=2 / keyint=250 / keyint_min=25 / scenecut=40 / intra_refresh=0 / rc_lookahead=40 / rc=abr / mbtree=1 / bitrate=1102 / ratetol=1.0 / qcomp=0.60 / qpmin=0 / qpmax=69 / qpstep=4 / ip_ratio=1.40 / aq=1:1.00
Default                     : No
Forced                      : No

Audio
ID                          : 2
Format                      : AC-3
Format/Info                 : Audio Coding 3
Format settings, Endianness : Big
Codec ID                    : A_AC3
Duration                    : 2 h 27 min
Bit rate mode               : Constant
Bit rate                    : 128 kb/s
Channel(s)                  : 2 channels
Channel positions           : Front: L R
Sampling rate               : 48.0 kHz
Frame rate                  : 31.250 FPS (1536 spf)
Bit depth                   : 16 bits
Compression mode            : Lossy
Stream size                 : 135 MiB (10%)
Language                    : English
Service kind                : Complete Main
Default                     : No
Forced                      : No




Handsome Devil Şeytan Tüyü 2016 1080p WEB-DL DUAL x264 TR-ENG TORK

Genişletmek için Tıkla!
Cuma saat 15:19 de , cideli37 Tarafından Yüklendi.
Kaynaklar: 5 / İndirilen: 0 / Boyut: 3.7 GB / Tamamlandı: 17
Torrenti İndir  Torrenti Şikayet Et Torrent Tanımı NFO Tanıtım Videosu
IMDB Puanı: 7.3 7.3/10
Kategori: Yabancı Filmler > 1080p
http://www.imdb.com/title/tt5016946/

Handsome Devil Şeytan Tüyü 2016 1080p WEB-DL DUAL x264 TR-ENG TORK
Yapımı : 2016 - İrlanda
Tür : Dram , Romantik
Süre: 95 Dak.
Yönetmen : John Butler (i)
Oyuncular : Nicholas Galitzine , Michael McElhatton , Hugh O'Conor , Amy Huberman , Fionn O'Shea
Senaryo : John Butler (i)
Yapımcı : -
İrlandalı yazar ve yönetmen John Butler›ın kendi senaryosundan filme aldığı İblis Tüyü etkileyici ve hareketli bir gençlik filmi. 16 yaşında olan Ned babasının zoruyla bir yatılı okula gider. Ned’in en büyük ihtirası müziktir fakat gittiği okulda geçerli olan tek ihtiras rugby sporudur. Kırmızıya boyanmış saçlarıyla dikkat çeken Ned, bu maço ortamda hemen hakaretlere maruz kalır. Oda arkadaşı Conor ise yakışıklı ve başarılı bir sporcudur ama değişik sebeplerle o da okul arkadaşlarına uyum sağlayamamaktadır. Bu iki dışlanmış gencin arkadaşlığı kendilerini keşfetmelerine aracı olur. Butler, oyuncularından aldığı iyi performanslar ve enerjik bir kurgunun yardımıyla, özden ve herkesin kendinden bir şeyler bulacağı bir büyüme öyküsü anlatıyor.
Going in Style Son Macera 2017 1080p WEB-DL DUAL x264 TR-ENG TORK

Genişletmek için Tıkla!
Cuma saat 13:08 de , TORKBOT Tarafından Yüklendi.
Kaynaklar: 10 / İndirilen: 0 / Boyut: 3.48 GB / Tamamlandı: 41
Torrenti İndir  Torrenti Şikayet Et Torrent Tanımı NFO Tanıtım Videosu
IMDB Puanı: 6.7 6.7/10 Kategori: Komedi | Suç
Kategori: Yabancı Filmler > 1080p
Anonim Yükleyicihttp://www.imdb.com/title/tt2568862/

Going in Style Son Macera 2017 1080p WEB-DL DUAL x264 TR-ENG TORK
Vizyon Tarihi: 21 Nisan 2017
Yapımı : 2017 - ABD
Tür : Komedi
Süre: 96 Dak.
Yönetmen : Zach Braff
Oyuncular : Morgan Freeman , Michael Caine , Alan Arkin , Ann-Margret , Matt Dillon
Senaryo : Martin Brest , Theodore Melfi
Yapımcı : Tony Bill
80'li yaşlarına gelmiş 3 emekli arkadaş, Willie (Morgan Freeman), Joe (Michael Caine) ve Albert (Alan Arkin) emekli aylıkları ve sosyal yardımlarla zar zor ayakta kalmaya çalışmaktadır. Bunun üzerine emeklilik ödemelerinin kesilmesiyle iyice zor vaziyette kalırlar. Çaresiz kalan ihtiyar adamlar, yalnızca kendi hakları kadar parayı almak üzere banka soymaya karar verirler. Ancak hem yaşları, hem de bu işteki deneyimsizlikleri başlarına ilgi çekici işlerin gelmesine kapı aralayacaktır.
Son Serüven (Going in Style), 1979 yapımı aynı isimli Martin Brest filminin yine çevrimi olarak 3 deneyimli oyuncuyu bir araya getiriyor.
Kolonya Cumhuriyeti 2017 720p x264 SanSürSüz TORK

Genişletmek için Tıkla!
Cuma saat 02:22 de , playdevil Tarafından Yüklendi.
Kaynaklar: 49 / İndirilen: 0 / Boyut: 1.25 GB / Tamamlandı: 430
Torrenti İndir  Torrenti Şikayet Et Torrent Tanımı NFO Tanıtım Videosu
IMDB Puanı: 6.1 6.1/10 Kategori: Komedi
Kategori: Yerli Filmler > 720p
http://www.imdb.com/title/tt6721848/

Kolonya Cumhuriyeti 2017 720p x264 SanSürSüz TORK





AÇIKLAMA

Amerikan gemisi yanlışlıklar batırılır.Daha sonra Amerika bu işi yapan Kolonya Cumhuriyetine savaş açar.Rusya ve Çinden gerekli desteği göremeyen Kolonya Cumhuriyeti uzaylılarla işbirliği yapar. Dünyaya gelen uzaylılara karşılama yapılır. Kolonya'ya iniş yapan uzaylı yerel halkın büyün sevgisiyle karşılanır ancak bir kaza olur ve kutlamalar sırasında uzay mekiği yerle yeksan olur. Kolonya'da bir müddet konaklamak zorunda kalan uzaylı ile yerel halkın arasında da kahkaha dolu bir macera başlar. Uzaylının inişiyle birlikte Amerika da tepkisiz kalmaz ve beş bin nüfuslu beldeye savaş açar. Artık işler iyice karşıacaktır...

BKM'nin yapımcılığında hayata geçen Kolonya Cumhuriyeti, Dedemin Fişi, Çarşı Pazar sinema filmlerinin senaristi olarak tanınan Murat Kepez'in de ilk uzun metraj sinema filmi. Komedi türündeki yerli filmde Çağlar Çorumlu, Uğur Bilgin, Mahir İpek gibi isimler yer alıyor.



NFO kısmındadır




Deli Ask 2017 1080p iTunes x264 cideli37 TORK

Genişletmek için Tıkla!
19-07-2017 14:54 , cideli37 Tarafından Yüklendi.
Kaynaklar: 21 / İndirilen: 0 / Boyut: 3.77 GB / Tamamlandı: 183
Torrenti İndir  Torrenti Şikayet Et Torrent Tanımı NFO Tanıtım Videosu
IMDB Puanı: 5.8 5.8/10 Kategori: Komedi
Kategori: Yerli Filmler > 1080p
http://www.imdb.com/title/tt6229852/

Deli Ask 2017 1080p iTunes x264 cideli37 TORK
Ekrem kız arkadaşı Neşe kalbini kazanmak için çalışıyordu ne oldu komik olaylar hakkında Film.
Yönetmenler: Murat Dundar, Murat Kaman
yazarlar: Emrah Kaman, Murat Kaman
Finding Dory Kayıp Balık Dori 2016 1080p DUAL TR-ENG x264 AC3 by cideli37 TORK

Genişletmek için Tıkla!
Saat: 03:49 , cideli37 Tarafından Yüklendi.
Kaynaklar: 0 / İndirilen: 1 / Boyut: 2.93 GB / Tamamlandı: 0
Torrenti İndir  Torrenti Şikayet Et Torrent Tanımı NFO Tanıtım Videosu
IMDB Puanı: 7.4 7.4/10 Kategori: Animasyon | Komedi | Macera
Kategori: Yabancı Filmler > 1080p
http://www.imdb.com/title/tt2277860/

Finding Dory Kayıp Balık Dori 2016 1080p DUAL TR-ENG x264 AC3 by cideli37 TORK
Vizyon Tarihi: 2 Eylül 2016
Yapımı : 2016 - ABD
Tür : Animasyon , Aile , Komedi , Macera
Süre: 97 Dak.
Yönetmen : Andrew Stanton, Angus MacLane
Oyuncular : -
Seslendirenler : Aysun Topar , Özdemir Çiftçioğlu , Erkan Taşdöğen , Nurhan Yılma , Müge Oruçkaptan
Senaryo : Andrew Stanton , Victoria Strouse
Yapımcı : John Lasseter , Lindsey Collins
Diğer Adı : Kayıp Balık Nemo 2, Finding Nemo 2
Kayıp Balık Dori filmi kimsenin unutamadığı Mavi Tang balığı Dori geçmişiyle alakalı kimi cevaplar ararken arkadaşı Nemo ve Marlin'le yine biraraya getiriyor. 10 saniyede bir belleği sıfırlanan Dori, yalnızca bir zamanlar bir ailesi olduğu ve onlardan bir şekilde ayrılmak zorunda kaldığıdır. Arkadaşlarıyla beraber ailesini bulabilmek için uzun bir yolculuğa çıkan Dori, yol süresince hayatla alakalı çok daha başka dersler de alacaktır.

web counter