Bu Sunum 0.5 Oranında Seed Edilmesi Mecburdur.
Marauders 2016 1080p BluRay DUAL TR-ENG x264 TORK

Genişletmek için Tıkla!
17-07-2017 09:43 , TORKBOT Tarafından Yüklendi.
Kaynaklar: 4 / İndirilen: 0 / Boyut: 1.82 GB / Tamamlandı: 26
Torrenti İndir  Torrenti Şikayet Et Torrent Tanımı NFO Tanıtım Videosu
IMDB Puanı: 5.5 5.5/10 Kategori: Aksiyon | Gizem | Suç
Kategori: Yabancı Filmler > 1080p
Anonim Yükleyicihttp://www.imdb.com/title/tt3963816/

Marauders 2016 1080p BluRay DUAL TR-ENG x264 TORK
Bir banka acımasız soygun çarptı edildiğinde, bütün kanıtlar sahibi ve yüksek güçlü istemciler işaret ediyor. FBI ajanları, bir grup halinde ineceğinize Ama - ve ölümcül heists devam - bu daha büyük bir komplo oynayan olduğu ortaya çıkıyor.
Yönetmen: Steven C. Miller
yazarlar: Michael Cody , Chris Sivertson
Yıldızlar: Bruce Willis , Christopher Meloni , Dave Bautista |
volkanbayramoglu, smnfrh, mesut03 ve diger 11 kisi bunu begendi.
Marauders 2016 1080p BluRay DUAL TR-ENG x264 TORK
Bir banka acımasız soygun çarptı edildiğinde, bütün kanıtlar sahibi ve yüksek güçlü istemciler işaret ediyor. FBI ajanları, bir grup halinde ineceğinize Ama - ve ölümcül heists devam - bu daha büyük bir komplo oynayan olduğu ortaya çıkıyor.
Yönetmen: Steven C. Miller
yazarlar: Michael Cody , Chris Sivertson
Yıldızlar: Bruce Willis , Christopher Meloni , Dave Bautista |
teşekkürler..


hayatisahin 17-07-2017 21:06
IMDB Yenile
Marauders (2016)
107 Dakika - Action | Crime | Mystery | Thriller
IMDB Puanı: 5.5 5.5/10 ( oy)
Yönetmen(ler): Steven C. Miller
Yazar(lar): Michael Cody | Chris Sivertson
Yıldızlar: Bruce Willis | Christopher Meloni | Dave Bautista | See full cast & crew
Kadro: Bruce Willis | Dave Bautista | Johnathon Schaech | Tyler Jon Olson | Richie Chance | Danny A. Abeckaser | Tara Holt | Carolyn Alise
Marauders 2016 1080p BluRay DUAL TR-ENG x264 TORK.mkv
Format                      : Matroska
Format version              : Version 4 / Version 2
File size                   : 1.82 GiB
Duration                    : 1 h 47 min
Overall bit rate            : 2 429 kb/s
Movie name                  : Marauders 2016 1080p BluRay DUAL TR-ENG x264 TORK
Encoded date                : UTC 2017-07-17 07:29:53
Writing application         : mkvmerge v8.5.2 ('Crosses') 32bit
Writing library             : libebml v1.3.3 + libmatroska v1.4.4

Video
ID                          : 1
Format                      : AVC
Format/Info                 : Advanced Video Codec
Format profile              : High@L4.1
Format settings, CABAC      : Yes
Format settings, ReFrames   : 4 frames
Codec ID                    : V_MPEG4/ISO/AVC
Duration                    : 1 h 47 min
Bit rate                    : 2 050 kb/s
Width                       : 1 920 pixels
Height                      : 800 pixels
Display aspect ratio        : 2.40:1
Frame rate mode             : Constant
Frame rate                  : 23.976 FPS
Color space                 : YUV
Chroma subsampling          : 4:2:0
Bit depth                   : 8 bits
Scan type                   : Progressive
Bits/(Pixel*Frame)          : 0.056
Stream size                 : 1.53 GiB (84%)
Writing library             : x264 core 148
Encoding settings           : cabac=1 / ref=4 / deblock=1:-1:-1 / analyse=0x3:0x133 / me=umh / subme=9 / psy=1 / psy_rd=1.00:0.15 / mixed_ref=1 / me_range=24 / chroma_me=1 / trellis=2 / 8x8dct=1 / cqm=0 / deadzone=21,11 / fast_pskip=0 / chroma_qp_offset=-3 / threads=12 / lookahead_threads=1 / sliced_threads=0 / nr=0 / decimate=1 / interlaced=0 / bluray_compat=0 / constrained_intra=0 / bframes=3 / b_pyramid=2 / b_adapt=2 / b_bias=0 / direct=3 / weightb=1 / open_gop=0 / weightp=2 / keyint=250 / keyint_min=23 / scenecut=40 / intra_refresh=0 / rc_lookahead=60 / rc=2pass / mbtree=1 / bitrate=2050 / ratetol=1.0 / qcomp=0.60 / qpmin=0 / qpmax=69 / qpstep=4 / cplxblur=20.0 / qblur=0.5 / vbv_maxrate=31250 / vbv_bufsize=31250 / nal_hrd=none / filler=0 / ip_ratio=1.40 / aq=1:1.00
Default                     : Yes
Forced                      : No

Audio #1
ID                          : 2
Format                      : AAC
Format/Info                 : Advanced Audio Codec
Format profile              : LC
Codec ID                    : A_AAC
Duration                    : 1 h 47 min
Bit rate                    : 153 kb/s
Channel(s)                  : 2 channels
Channel positions           : Front: L R
Sampling rate               : 48.0 kHz
Frame rate                  : 46.875 FPS (1024 spf)
Compression mode            : Lossy
Delay relative to video     : -43 ms
Stream size                 : 118 MiB (6%)
Title                       : cideli37
Default                     : Yes
Forced                      : No

Audio #2
ID                          : 3
Format                      : AC-3
Format/Info                 : Audio Coding 3
Format settings, Endianness : Big
Codec ID                    : A_AC3
Duration                    : 1 h 47 min
Bit rate mode               : Constant
Bit rate                    : 224 kb/s
Channel(s)                  : 2 channels
Channel positions           : Front: L R
Sampling rate               : 48.0 kHz
Frame rate                  : 31.250 FPS (1536 spf)
Bit depth                   : 16 bits
Compression mode            : Lossy
Delay relative to video     : -43 ms
Stream size                 : 172 MiB (9%)
Title                       : cideli37
Language                    : Turkish
Service kind                : Complete Main
Default                     : No
Forced                      : No

web counter