Bu Sunum 0.5 Oranında Seed Edilmesi Mecburdur.
Prevenge Yalvarış 2016 1080p BluRay DUAL TR-ENG x264 TORK

Genişletmek için Tıkla!
17-07-2017 02:59 , TORKBOT Tarafından Yüklendi.
Kaynaklar: 2 / İndirilen: 0 / Boyut: 1.45 GB / Tamamlandı: 11
Torrenti İndir  Torrenti Şikayet Et Torrent Tanımı NFO Tanıtım Videosu
IMDB Puanı: 6.0 6.0/10 Kategori: Drama | Fantastik | Komedi
Kategori: Yabancı Filmler > 1080p
Anonim Yükleyicihttp://www.imdb.com/title/tt5154288/

Prevenge Yalvarış 2016 1080p BluRay DUAL TR-ENG x264 TORK




Dul Ruth ona bir şekilde duruyor herkes sevk Katil bir koparmak çıkar, doğmamış bebek tarafından yönlendirilmek için zaman, kendini inanan yedi aylık hamile.
Yönetmen: Alice Lowe
Yazar: Alice Lowe
Yıldızlar: Gemma Whelan , Kate Dickie , Alice Lowe |
smnfrh, volkanbayramoglu, Eminn ve diger 5 kisi bunu begendi.
Prevenge Yalvarış 2016 1080p BluRay DUAL TR-ENG x264 TORK




Dul Ruth ona bir şekilde duruyor herkes sevk Katil bir koparmak çıkar, doğmamış bebek tarafından yönlendirilmek için zaman, kendini inanan yedi aylık hamile.
Yönetmen: Alice Lowe
Yazar: Alice Lowe
Yıldızlar: Gemma Whelan , Kate Dickie , Alice Lowe |
Henüz yorum yapılmamış.
IMDB Yenile
Prevenge (2016)
88 Dakika - Comedy | Drama | Fantasy | Horror | Thriller
IMDB Puanı: 6.0 6.0/10 ( oy)
Yönetmen(ler): Alice Lowe
Yazar(lar): Alice Lowe
Yıldızlar: Gemma Whelan | Kate Dickie | Alice Lowe | See full cast & crew
Kadro: Gemma Whelan | Alice Lowe | Tom Davis | Eileen Davies | Dan Renton Skinner | Grace Calder | Leila Hoffman | Della Moon Synnott
Prevenge Yalvaris 2016 1080p BluRay DUAL TR-ENG x264 TORK.mkv
Format                      : Matroska
Format version              : Version 4 / Version 2
File size                   : 1.45 GiB
Duration                    : 1 h 28 min
Overall bit rate            : 2 355 kb/s
Movie name                  :  Prevenge Yalvaris 2016 1080p DUAL TR-ENG x264 TORK
Encoded date                : UTC 2017-07-17 00:38:01
Writing application         : mkvmerge v8.5.2 ('Crosses') 32bit
Writing library             : libebml v1.3.3 + libmatroska v1.4.4

Video
ID                          : 1
Format                      : AVC
Format/Info                 : Advanced Video Codec
Format profile              : High@L4.1
Format settings, CABAC      : Yes
Format settings, ReFrames   : 4 frames
Codec ID                    : V_MPEG4/ISO/AVC
Duration                    : 1 h 28 min
Bit rate                    : 2 050 kb/s
Width                       : 1 920 pixels
Height                      : 800 pixels
Display aspect ratio        : 2.40:1
Frame rate mode             : Constant
Frame rate                  : 25.000 FPS
Color space                 : YUV
Chroma subsampling          : 4:2:0
Bit depth                   : 8 bits
Scan type                   : Progressive
Bits/(Pixel*Frame)          : 0.053
Stream size                 : 1.26 GiB (87%)
Writing library             : x264 core 148
Encoding settings           : cabac=1 / ref=4 / deblock=1:-1:-1 / analyse=0x3:0x133 / me=umh / subme=9 / psy=1 / psy_rd=1.00:0.15 / mixed_ref=1 / me_range=24 / chroma_me=1 / trellis=2 / 8x8dct=1 / cqm=0 / deadzone=21,11 / fast_pskip=0 / chroma_qp_offset=-3 / threads=12 / lookahead_threads=1 / sliced_threads=0 / nr=0 / decimate=1 / interlaced=0 / bluray_compat=0 / constrained_intra=0 / bframes=3 / b_pyramid=2 / b_adapt=2 / b_bias=0 / direct=3 / weightb=1 / open_gop=0 / weightp=2 / keyint=250 / keyint_min=23 / scenecut=40 / intra_refresh=0 / rc_lookahead=60 / rc=2pass / mbtree=1 / bitrate=2050 / ratetol=1.0 / qcomp=0.60 / qpmin=0 / qpmax=69 / qpstep=4 / cplxblur=20.0 / qblur=0.5 / vbv_maxrate=31250 / vbv_bufsize=31250 / nal_hrd=none / filler=0 / ip_ratio=1.40 / aq=1:1.00
Default                     : Yes
Forced                      : No

Audio #1
ID                          : 2
Format                      : AAC
Format/Info                 : Advanced Audio Codec
Format profile              : LC
Codec ID                    : A_AAC
Duration                    : 1 h 28 min
Bit rate                    : 113 kb/s
Channel(s)                  : 2 channels
Channel positions           : Front: L R
Sampling rate               : 48.0 kHz
Frame rate                  : 46.875 FPS (1024 spf)
Compression mode            : Lossy
Delay relative to video     : -43 ms
Stream size                 : 71.1 MiB (5%)
Title                       : cideli37
Language                    : English
Default                     : No
Forced                      : No

Audio #2
ID                          : 3
Format                      : AC-3
Format/Info                 : Audio Coding 3
Format settings, Endianness : Big
Codec ID                    : A_AC3
Duration                    : 1 h 28 min
Bit rate mode               : Constant
Bit rate                    : 192 kb/s
Channel(s)                  : 2 channels
Channel positions           : Front: L R
Sampling rate               : 48.0 kHz
Frame rate                  : 31.250 FPS (1536 spf)
Bit depth                   : 16 bits
Compression mode            : Lossy
Delay relative to video     : -43 ms
Stream size                 : 121 MiB (8%)
Title                       : cideli37%
Language                    : Turkish
Service kind                : Complete Main
Default                     : Yes
Forced                      : Yes

web counter