Bu Sunum 0.5 Oranında Seed Edilmesi Mecburdur.
To the Bone Kemiklerine Kadar 2017 NF 1080p DUAL TR-ENG x264 TORK

Genişletmek için Tıkla!
15-07-2017 04:44 , TORKBOT Tarafından Yüklendi.
Kaynaklar: 11 / İndirilen: 0 / Boyut: 2.47 GB / Tamamlandı: 48
Torrenti İndir  Torrenti Şikayet Et Torrent Tanımı NFO Tanıtım Videosu
IMDB Puanı: 7.1 7.1/10 Kategori: Drama | Komedi
Kategori: Yabancı Filmler > 1080p
Anonim Yükleyicihttp://www.imdb.com/title/tt5541240/

To the Bone Kemiklerine Kadar 2017 NF 1080p DUAL TR-ENG x264 TORK
Yapımı : 2017 - ABD
Tür : Dram
Süre: 107 Dak.
Yönetmen : Marti Noxon
Oyuncular : Keanu Reeves , Lily Collins , Lili Taylor , Liana Liberato , Alanna Ubach
Senaryo : Marti Noxon
Yapımcı : Julie Lynn , Bonnie Curtis
20 yaşındaki Ellen, kendi halinde takılan anoreksiya hastası genç bir kızdır. Gençlik yıllarının en güzel zamanlarını, çeşitli iyileştirme programlarıyla zayıflamaya harcamıştır. Bu duruma bir çözüm bulmaya kararlı olan ailesi ise onu, yöntemleri geleneksel olmayan bir doktor tarafından yönetilen ve aynı soruna sahip insanların bir arada bulunduğu bir grup evine gönderir. Bu süreçte Ellen, bağımlılığıyla nasıl baş edeceğini keşfetmeli, kendisine bir şans tanımalı ve diğer hastalarla nasıl iletişim kuracağını bulmaya çalışmalıdır.
gs001, knnymn, volkanbayramoglu ve diger 13 kisi bunu begendi.
To the Bone Kemiklerine Kadar 2017 NF 1080p DUAL TR-ENG x264 TORK
Yapımı : 2017 - ABD
Tür : Dram
Süre: 107 Dak.
Yönetmen : Marti Noxon
Oyuncular : Keanu Reeves , Lily Collins , Lili Taylor , Liana Liberato , Alanna Ubach
Senaryo : Marti Noxon
Yapımcı : Julie Lynn , Bonnie Curtis
20 yaşındaki Ellen, kendi halinde takılan anoreksiya hastası genç bir kızdır. Gençlik yıllarının en güzel zamanlarını, çeşitli iyileştirme programlarıyla zayıflamaya harcamıştır. Bu duruma bir çözüm bulmaya kararlı olan ailesi ise onu, yöntemleri geleneksel olmayan bir doktor tarafından yönetilen ve aynı soruna sahip insanların bir arada bulunduğu bir grup evine gönderir. Bu süreçte Ellen, bağımlılığıyla nasıl baş edeceğini keşfetmeli, kendisine bir şans tanımalı ve diğer hastalarla nasıl iletişim kuracağını bulmaya çalışmalıdır.
Henüz yorum yapılmamış.
IMDB Yenile
To the Bone (2017)
107 Dakika - Comedy | Drama
IMDB Puanı: 7.1 7.1/10 ( oy)
Yönetmen(ler): Marti Noxon
Yazar(lar): Marti Noxon
Yıldızlar: Lily Collins | Keanu Reeves | Leslie Bibb | See full cast & crew
Kadro: Lily Collins | Keanu Reeves | Leslie Bibb | Liana Liberato | Alanna Ubach | Lili Taylor | Brooke Smith | Retta | Rebekah Kennedy
To the Bone  Kemiklerine Kadar 2017 NF 1080p DUAL TR-ENG x264 TORK.mkv
Format                      : Matroska
Format version              : Version 4 / Version 2
File size                   : 2.47 GiB
Duration                    : 1h 47mn
Overall bit rate            : 3 282 Kbps
Encoded date                : UTC 2017-07-15 01:42:07
Writing application         : mkvmerge v9.6.0 ('Slave To Your Mind') 64bit
Writing library             : libebml v1.3.4 + libmatroska v1.4.5

Video
ID                          : 1
Format                      : AVC
Format/Info                 : Advanced Video Codec
Format profile              : High@L4
Format settings, CABAC      : Yes
Format settings, ReFrames   : 4 frames
Codec ID                    : V_MPEG4/ISO/AVC
Duration                    : 1h 47mn
Bit rate                    : 2 001 Kbps
Width                       : 1 920 pixels
Height                      : 1 040 pixels
Display aspect ratio        : 1.85:1
Frame rate mode             : Constant
Frame rate                  : 23.976 (24000/1001) fps
Color space                 : YUV
Chroma subsampling          : 4:2:0
Bit depth                   : 8 bits
Scan type                   : Progressive
Bits/(Pixel*Frame)          : 0.042
Stream size                 : 1.51 GiB (61%)
Title                       : cideli37
Writing library             : x264 core 148 r2721 72d53ab
Encoding settings           : cabac=1 / ref=3 / deblock=1:0:0 / analyse=0x3:0x113 / me=hex / subme=7 / psy=1 / psy_rd=1.00:0.00 / mixed_ref=1 / me_range=16 / chroma_me=1 / trellis=1 / 8x8dct=1 / cqm=0 / deadzone=21,11 / fast_pskip=1 / chroma_qp_offset=-2 / threads=12 / lookahead_threads=2 / sliced_threads=0 / nr=0 / decimate=1 / interlaced=0 / bluray_compat=0 / constrained_intra=0 / bframes=3 / b_pyramid=2 / b_adapt=1 / b_bias=0 / direct=1 / weightb=1 / open_gop=0 / weightp=2 / keyint=250 / keyint_min=23 / scenecut=40 / intra_refresh=0 / rc_lookahead=40 / rc=2pass / mbtree=1 / bitrate=2001 / ratetol=1.0 / qcomp=0.60 / qpmin=0 / qpmax=69 / qpstep=4 / cplxblur=20.0 / qblur=0.5 / ip_ratio=1.40 / aq=1:1.00
Default                     : Yes
Forced                      : No

Audio #1
ID                          : 2
Format                      : AC-3
Format/Info                 : Audio Coding 3
Mode extension              : CM (complete main)
Format settings, Endianness : Big
Codec ID                    : A_AC3
Duration                    : 1h 47mn
Bit rate mode               : Constant
Bit rate                    : 640 Kbps
Channel(s)                  : 2 channels
Channel positions           : Front: L R
Sampling rate               : 48.0 KHz
Frame rate                  : 31.250 fps (1536 spf)
Compression mode            : Lossy
Stream size                 : 493 MiB (19%)
Title                       : cideli37
Language                    : Turkish
Default                     : No
Forced                      : No

Audio #2
ID                          : 3
Format                      : AC-3
Format/Info                 : Audio Coding 3
Mode extension              : CM (complete main)
Format settings, Endianness : Big
Codec ID                    : A_AC3
Duration                    : 1h 47mn
Bit rate mode               : Constant
Bit rate                    : 640 Kbps
Channel(s)                  : 2 channels
Channel positions           : Front: L R
Sampling rate               : 48.0 KHz
Frame rate                  : 31.250 fps (1536 spf)
Compression mode            : Lossy
Stream size                 : 493 MiB (19%)
Title                       : cideli37
Language                    : English
Default                     : No
Forced                      : No

web counter